  0
SECTION
  2
HEADER
  9
$ACADVER
  1
AC1015
  9
$ACADMAINTVER
 70
     6
  9
$DWGCODEPAGE
  3
ANSI_1252
  9
$INSBASE
 10
0.0
 20
0.0
 30
0.0
  9
$EXTMIN
 10
-1059.350803461536
 20
151.563962226144
 30
0.0
  9
$EXTMAX
 10
-849.350803461536
 20
448.5639622261441
 30
0.0
  9
$LIMMIN
 10
0.0
 20
0.0
  9
$LIMMAX
 10
12.0
 20
9.0
  9
$ORTHOMODE
 70
     0
  9
$REGENMODE
 70
     1
  9
$FILLMODE
 70
     1
  9
$QTEXTMODE
 70
     0
  9
$MIRRTEXT
 70
     1
  9
$LTSCALE
 40
1.0
  9
$ATTMODE
 70
     1
  9
$TEXTSIZE
 40
0.2
  9
$TRACEWID
 40
0.05
  9
$TEXTSTYLE
  7
Standard
  9
$CLAYER
  8
0
  9
$CELTYPE
  6
ByLayer
  9
$CECOLOR
 62
   256
  9
$CELTSCALE
 40
1.0
  9
$DISPSILH
 70
     0
  9
$DIMSCALE
 40
1.0
  9
$DIMASZ
 40
0.18
  9
$DIMEXO
 40
0.0625
  9
$DIMDLI
 40
0.38
  9
$DIMRND
 40
0.0
  9
$DIMDLE
 40
0.0
  9
$DIMEXE
 40
0.18
  9
$DIMTP
 40
0.0
  9
$DIMTM
 40
0.0
  9
$DIMTXT
 40
0.18
  9
$DIMCEN
 40
0.09
  9
$DIMTSZ
 40
0.0
  9
$DIMTOL
 70
     0
  9
$DIMLIM
 70
     0
  9
$DIMTIH
 70
     1
  9
$DIMTOH
 70
     1
  9
$DIMSE1
 70
     0
  9
$DIMSE2
 70
     0
  9
$DIMTAD
 70
     0
  9
$DIMZIN
 70
     0
  9
$DIMBLK
  1

  9
$DIMASO
 70
     1
  9
$DIMSHO
 70
     1
  9
$DIMPOST
  1

  9
$DIMAPOST
  1

  9
$DIMALT
 70
     0
  9
$DIMALTD
 70
     2
  9
$DIMALTF
 40
25.4
  9
$DIMLFAC
 40
1.0
  9
$DIMTOFL
 70
     0
  9
$DIMTVP
 40
0.0
  9
$DIMTIX
 70
     0
  9
$DIMSOXD
 70
     0
  9
$DIMSAH
 70
     0
  9
$DIMBLK1
  1

  9
$DIMBLK2
  1

  9
$DIMSTYLE
  2
Standard
  9
$DIMCLRD
 70
     0
  9
$DIMCLRE
 70
     0
  9
$DIMCLRT
 70
     0
  9
$DIMTFAC
 40
1.0
  9
$DIMGAP
 40
0.09
  9
$DIMJUST
 70
     0
  9
$DIMSD1
 70
     0
  9
$DIMSD2
 70
     0
  9
$DIMTOLJ
 70
     1
  9
$DIMTZIN
 70
     0
  9
$DIMALTZ
 70
     0
  9
$DIMALTTZ
 70
     0
  9
$DIMUPT
 70
     0
  9
$DIMDEC
 70
     4
  9
$DIMTDEC
 70
     4
  9
$DIMALTU
 70
     2
  9
$DIMALTTD
 70
     2
  9
$DIMTXSTY
  7
Standard
  9
$DIMAUNIT
 70
     0
  9
$DIMADEC
 70
     0
  9
$DIMALTRND
 40
0.0
  9
$DIMAZIN
 70
     0
  9
$DIMDSEP
 70
    46
  9
$DIMATFIT
 70
     3
  9
$DIMFRAC
 70
     0
  9
$DIMLDRBLK
  1

  9
$DIMLUNIT
 70
     2
  9
$DIMLWD
 70
    -2
  9
$DIMLWE
 70
    -2
  9
$DIMTMOVE
 70
     0
  9
$LUNITS
 70
     2
  9
$LUPREC
 70
     4
  9
$SKETCHINC
 40
0.1
  9
$FILLETRAD
 40
0.5
  9
$AUNITS
 70
     0
  9
$AUPREC
 70
     0
  9
$MENU
  1
.
  9
$ELEVATION
 40
0.0
  9
$PELEVATION
 40
0.0
  9
$THICKNESS
 40
0.0
  9
$LIMCHECK
 70
     0
  9
$CHAMFERA
 40
0.0
  9
$CHAMFERB
 40
0.0
  9
$CHAMFERC
 40
0.0
  9
$CHAMFERD
 40
0.0
  9
$SKPOLY
 70
     0
  9
$TDCREATE
 40
2458388.383603322
  9
$TDUCREATE
 40
2458388.300269988
  9
$TDUPDATE
 40
2458388.38360368
  9
$TDUUPDATE
 40
2458388.300270347
  9
$TDINDWG
 40
0.0000000116
  9
$TDUSRTIMER
 40
0.0000000116
  9
$USRTIMER
 70
     1
  9
$ANGBASE
 50
0.0
  9
$ANGDIR
 70
     0
  9
$PDMODE
 70
     0
  9
$PDSIZE
 40
0.0
  9
$PLINEWID
 40
0.0
  9
$SPLFRAME
 70
     0
  9
$SPLINETYPE
 70
     6
  9
$SPLINESEGS
 70
     8
  9
$HANDSEED
  5
3A1
  9
$SURFTAB1
 70
     6
  9
$SURFTAB2
 70
     6
  9
$SURFTYPE
 70
     6
  9
$SURFU
 70
     6
  9
$SURFV
 70
     6
  9
$UCSBASE
  2

  9
$UCSNAME
  2

  9
$UCSORG
 10
0.0
 20
0.0
 30
0.0
  9
$UCSXDIR
 10
1.0
 20
0.0
 30
0.0
  9
$UCSYDIR
 10
0.0
 20
1.0
 30
0.0
  9
$UCSORTHOREF
  2

  9
$UCSORTHOVIEW
 70
     0
  9
$UCSORGTOP
 10
0.0
 20
0.0
 30
0.0
  9
$UCSORGBOTTOM
 10
0.0
 20
0.0
 30
0.0
  9
$UCSORGLEFT
 10
0.0
 20
0.0
 30
0.0
  9
$UCSORGRIGHT
 10
0.0
 20
0.0
 30
0.0
  9
$UCSORGFRONT
 10
0.0
 20
0.0
 30
0.0
  9
$UCSORGBACK
 10
0.0
 20
0.0
 30
0.0
  9
$PUCSBASE
  2

  9
$PUCSNAME
  2

  9
$PUCSORG
 10
0.0
 20
0.0
 30
0.0
  9
$PUCSXDIR
 10
1.0
 20
0.0
 30
0.0
  9
$PUCSYDIR
 10
0.0
 20
1.0
 30
0.0
  9
$PUCSORTHOREF
  2

  9
$PUCSORTHOVIEW
 70
     0
  9
$PUCSORGTOP
 10
0.0
 20
0.0
 30
0.0
  9
$PUCSORGBOTTOM
 10
0.0
 20
0.0
 30
0.0
  9
$PUCSORGLEFT
 10
0.0
 20
0.0
 30
0.0
  9
$PUCSORGRIGHT
 10
0.0
 20
0.0
 30
0.0
  9
$PUCSORGFRONT
 10
0.0
 20
0.0
 30
0.0
  9
$PUCSORGBACK
 10
0.0
 20
0.0
 30
0.0
  9
$USERI1
 70
     0
  9
$USERI2
 70
     0
  9
$USERI3
 70
     0
  9
$USERI4
 70
     0
  9
$USERI5
 70
     0
  9
$USERR1
 40
19.0
  9
$USERR2
 40
0.0
  9
$USERR3
 40
0.0
  9
$USERR4
 40
0.0
  9
$USERR5
 40
0.0
  9
$WORLDVIEW
 70
     1
  9
$SHADEDGE
 70
     3
  9
$SHADEDIF
 70
    70
  9
$TILEMODE
 70
     1
  9
$MAXACTVP
 70
    64
  9
$PINSBASE
 10
0.0
 20
0.0
 30
0.0
  9
$PLIMCHECK
 70
     0
  9
$PEXTMIN
 10
1.00000000000000E+20
 20
1.00000000000000E+20
 30
1.00000000000000E+20
  9
$PEXTMAX
 10
-1.00000000000000E+20
 20
-1.00000000000000E+20
 30
-1.00000000000000E+20
  9
$PLIMMIN
 10
0.0
 20
0.0
  9
$PLIMMAX
 10
12.0
 20
9.0
  9
$UNITMODE
 70
     0
  9
$VISRETAIN
 70
     1
  9
$PLINEGEN
 70
     0
  9
$PSLTSCALE
 70
     1
  9
$TREEDEPTH
 70
  3020
  9
$CMLSTYLE
  2
Standard
  9
$CMLJUST
 70
     0
  9
$CMLSCALE
 40
1.0
  9
$PROXYGRAPHICS
 70
     1
  9
$MEASUREMENT
 70
     1
  9
$CELWEIGHT
370
    -1
  9
$ENDCAPS
280
     0
  9
$JOINSTYLE
280
     0
  9
$LWDISPLAY
290
     0
  9
$INSUNITS
 70
     4
  9
$HYPERLINKBASE
  1

  9
$STYLESHEET
  1

  9
$XEDIT
290
     1
  9
$CEPSNTYPE
380
     0
  9
$PSTYLEMODE
290
     1
  9
$FINGERPRINTGUID
  2
{9C759296-5122-4C01-9433-FCD2BFA89474}
  9
$VERSIONGUID
  2
{FAEB1C32-E019-11D5-929B-00C0DF256EC4}
  9
$EXTNAMES
290
     1
  9
$PSVPSCALE
 40
0.0
  9
$OLESTARTUP
290
     0
  0
ENDSEC
  0
SECTION
  2
CLASSES
  0
CLASS
  1
ACDBDICTIONARYWDFLT
  2
AcDbDictionaryWithDefault
  3
ObjectDBX Classes
 90
        0
280
     0
281
     0
  0
CLASS
  1
VISUALSTYLE
  2
AcDbVisualStyle
  3
ObjectDBX Classes
 90
     4095
280
     0
281
     0
  0
CLASS
  1
MATERIAL
  2
AcDbMaterial
  3
ObjectDBX Classes
 90
     1153
280
     0
281
     0
  0
CLASS
  1
SCALE
  2
AcDbScale
  3
ObjectDBX Classes
 90
     1153
280
     0
281
     0
  0
CLASS
  1
SUN
  2
AcDbSun
  3
SCENEOE
 90
     1153
280
     0
281
     0
  0
CLASS
  1
DICTIONARYVAR
  2
AcDbDictionaryVar
  3
ObjectDBX Classes
 90
        0
280
     0
281
     0
  0
CLASS
  1
ACDBPLACEHOLDER
  2
AcDbPlaceHolder
  3
ObjectDBX Classes
 90
        0
280
     0
281
     0
  0
CLASS
  1
LAYOUT
  2
AcDbLayout
  3
ObjectDBX Classes
 90
        0
280
     0
281
     0
  0
ENDSEC
  0
SECTION
  2
TABLES
  0
TABLE
  2
VPORT
  5
8
330
0
100
AcDbSymbolTable
 70
     1
  0
VPORT
  5
29
330
8
100
AcDbSymbolTableRecord
100
AcDbViewportTableRecord
  2
*Active
 70
     0
 10
0.0
 20
0.0
 11
1.0
 21
1.0
 12
-954.3508034615361
 22
300.063962226144
 13
0.0
 23
0.0
 14
0.5
 24
0.5
 15
0.5
 25
0.5
 16
0.0
 26
0.0
 36
1.0
 17
0.0
 27
0.0
 37
0.0
 40
326.7000000000002
 41
1.60267857142857
 42
50.0
 43
0.0
 44
0.0
 50
0.0
 51
0.0
 71
     0
 72
   100
 73
     1
 74
     3
 75
     0
 76
     0
 77
     0
 78
     0
281
     0
 65
     1
110
0.0
120
0.0
130
0.0
111
1.0
121
0.0
131
0.0
112
0.0
122
1.0
132
0.0
 79
     0
146
0.0
  0
ENDTAB
  0
TABLE
  2
LTYPE
  5
5
330
0
100
AcDbSymbolTable
 70
     8
  0
LTYPE
  5
14
330
5
100
AcDbSymbolTableRecord
100
AcDbLinetypeTableRecord
  2
ByBlock
 70
     0
  3

 72
    65
 73
     0
 40
0.0
  0
LTYPE
  5
15
330
5
100
AcDbSymbolTableRecord
100
AcDbLinetypeTableRecord
  2
ByLayer
 70
     0
  3

 72
    65
 73
     0
 40
0.0
  0
LTYPE
  5
16
330
5
100
AcDbSymbolTableRecord
100
AcDbLinetypeTableRecord
  2
Continuous
 70
     0
  3
Solid line
 72
    65
 73
     0
 40
0.0
  0
LTYPE
  5
6A
330
5
100
AcDbSymbolTableRecord
100
AcDbLinetypeTableRecord
  2
DASHED
 70
     0
  3
Dashed
 72
    65
 73
     2
 40
15.0
 49
7.0
 74
     0
 49
-8.0
 74
     0
  0
LTYPE
  5
6B
330
5
100
AcDbSymbolTableRecord
100
AcDbLinetypeTableRecord
  2
DOTTED
 70
     0
  3
Dotted
 72
    65
 73
     2
 40
1.0
 49
0.0
 74
     0
 49
-1.0
 74
     0
  0
LTYPE
  5
6C
330
5
100
AcDbSymbolTableRecord
100
AcDbLinetypeTableRecord
  2
DOT_CENTER
 70
     0
  3
Dot_Center
 72
    65
 73
     4
 40
14.0
 49
12.0
 74
     0
 49
-1.0
 74
     0
 49
0.0
 74
     0
 49
-1.0
 74
     0
  0
LTYPE
  5
6D
330
5
100
AcDbSymbolTableRecord
100
AcDbLinetypeTableRecord
  2
LONG_DASHED
 70
     0
  3
Long_Dashed
 72
    65
 73
     2
 40
15.0
 49
10.0
 74
     0
 49
-5.0
 74
     0
  0
LTYPE
  5
6E
330
5
100
AcDbSymbolTableRecord
100
AcDbLinetypeTableRecord
  2
DASH_CENTER
 70
     0
  3
Dash_Center
 72
    65
 73
     4
 40
14.0
 49
11.0
 74
     0
 49
-1.0
 74
     0
 49
1.0
 74
     0
 49
-1.0
 74
     0
  0
LTYPE
  5
6F
330
5
100
AcDbSymbolTableRecord
100
AcDbLinetypeTableRecord
  2
PHANTOM
 70
     0
  3
Phantom
 72
    65
 73
     6
 40
13.0
 49
10.0
 74
     0
 49
-1.0
 74
     0
 49
0.0
 74
     0
 49
-1.0
 74
     0
 49
0.0
 74
     0
 49
-1.0
 74
     0
  0
LTYPE
  5
70
330
5
100
AcDbSymbolTableRecord
100
AcDbLinetypeTableRecord
  2
CENTER_DASH_DASH
 70
     0
  3
Center_Dash_Dash
 72
    65
 73
     6
 40
14.0
 49
9.0
 74
     0
 49
-1.0
 74
     0
 49
1.0
 74
     0
 49
-1.0
 74
     0
 49
1.0
 74
     0
 49
-1.0
 74
     0
  0
ENDTAB
  0
TABLE
  2
LAYER
  5
2
330
0
100
AcDbSymbolTable
 70
     2
  0
LAYER
  5
10
330
2
100
AcDbSymbolTableRecord
100
AcDbLayerTableRecord
  2
0
 70
     0
 62
     7
  6
Continuous
370
    -3
390
F
  0
LAYER
  5
71
330
2
100
AcDbSymbolTableRecord
100
AcDbLayerTableRecord
  2
1
 70
     0
 62
     7
  6
Continuous
370
    -3
390
F
  0
ENDTAB
  0
TABLE
  2
STYLE
  5
3
330
0
100
AcDbSymbolTable
 70
     5
  0
STYLE
  5
11
330
3
100
AcDbSymbolTableRecord
100
AcDbTextStyleTableRecord
  2
Standard
 70
     0
 40
0.0
 41
1.0
 50
0.0
 71
     0
 42
0.2
  3
txt
  4

  0
STYLE
  5
C2
330
3
100
AcDbSymbolTableRecord
100
AcDbTextStyleTableRecord
  2
CONVERTER_11
 70
     0
 40
0.0
 41
1.2
 50
0.0
 71
     0
 42
0.2
  3
ARIAL.TTF
  4

  0
STYLE
  5
C5
330
3
100
AcDbSymbolTableRecord
100
AcDbTextStyleTableRecord
  2
CONVERTER_12
 70
     0
 40
0.0
 41
1.02
 50
0.0
 71
     0
 42
0.2
  3
ARIAL.TTF
  4

  0
STYLE
  5
CC
330
3
100
AcDbSymbolTableRecord
100
AcDbTextStyleTableRecord
  2
CONVERTER_13
 70
     0
 40
0.0
 41
1.38
 50
0.0
 71
     0
 42
0.2
  3
ARIAL.TTF
  4

  0
STYLE
  5
2C4
330
3
100
AcDbSymbolTableRecord
100
AcDbTextStyleTableRecord
  2
CONVERTER_14
 70
     0
 40
0.0
 41
0.95
 50
0.0
 71
     0
 42
0.2
  3
simplex.shx
  4

  0
ENDTAB
  0
TABLE
  2
VIEW
  5
6
330
0
100
AcDbSymbolTable
 70
     0
  0
ENDTAB
  0
TABLE
  2
UCS
  5
7
330
0
100
AcDbSymbolTable
 70
     0
  0
ENDTAB
  0
TABLE
  2
APPID
  5
9
330
0
100
AcDbSymbolTable
 70
     1
  0
APPID
  5
12
330
9
100
AcDbSymbolTableRecord
100
AcDbRegAppTableRecord
  2
ACAD
 70
     0
  0
ENDTAB
  0
TABLE
  2
DIMSTYLE
  5
A
330
0
100
AcDbSymbolTable
 70
    14
100
AcDbDimStyleTable
  0
DIMSTYLE
105
27
330
A
100
AcDbSymbolTableRecord
100
AcDbDimStyleTableRecord
  2
Standard
 70
     0
178
     0
340
11
  0
DIMSTYLE
105
2D0
102
{ACAD_REACTORS
330
2D1
102
}
330
A
100
AcDbSymbolTableRecord
100
AcDbDimStyleTableRecord
  2
ME10_DIM_10
 70
     0
 41
3.0
 42
0.5
 44
1.0
 73
     0
 74
     0
 77
     1
 78
     8
140
3.0
147
2.0
172
     1
173
     1
174
     1
175
     1
176
     7
177
     7
271
     2
178
     7
271
     2
340
2C4
  0
DIMSTYLE
105
2DB
102
{ACAD_REACTORS
330
2DC
102
}
330
A
100
AcDbSymbolTableRecord
100
AcDbDimStyleTableRecord
  2
ME10_DIM_11
 70
     0
 41
3.0
 42
0.5
 44
1.0
 73
     0
 74
     0
 77
     1
 78
     8
140
3.0
147
2.0
172
     1
173
     1
174
     1
175
     1
176
     7
177
     7
271
     2
178
     7
271
     2
340
2C4
  0
DIMSTYLE
105
2E6
102
{ACAD_REACTORS
330
2E7
102
}
330
A
100
AcDbSymbolTableRecord
100
AcDbDimStyleTableRecord
  2
ME10_DIM_12
 70
     0
  3
\U+25D8<>
 41
3.0
 42
0.5
 44
1.0
 73
     0
 74
     0
 77
     1
 78
     8
140
3.0
147
2.0
172
     1
173
     1
174
     1
175
     1
176
     7
177
     7
271
     2
178
     7
271
     2
340
2C4
  0
DIMSTYLE
105
2F1
102
{ACAD_REACTORS
330
2F2
102
}
330
A
100
AcDbSymbolTableRecord
100
AcDbDimStyleTableRecord
  2
ME10_DIM_13
 70
     0
  3
M<>
 41
3.0
 42
0.5
 44
1.0
 73
     0
 74
     0
 77
     1
 78
     8
140
3.0
147
2.0
172
     1
173
     1
174
     1
175
     1
176
     7
177
     7
271
     2
178
     7
271
     2
340
2C4
  0
DIMSTYLE
105
2FC
102
{ACAD_REACTORS
330
2FD
102
}
330
A
100
AcDbSymbolTableRecord
100
AcDbDimStyleTableRecord
  2
ME10_DIM_14
 70
     0
 41
3.0
 42
0.5
 44
1.0
 73
     0
 74
     0
 77
     1
 78
     8
140
3.0
147
2.0
172
     1
173
     1
174
     1
175
     1
176
     7
177
     7
271
     2
178
     7
271
     2
340
2C4
  0
DIMSTYLE
105
307
102
{ACAD_REACTORS
330
308
102
}
330
A
100
AcDbSymbolTableRecord
100
AcDbDimStyleTableRecord
  2
ME10_DIM_15
 70
     0
 41
3.0
 42
0.5
 44
1.0
 73
     0
 74
     0
 77
     1
 78
     8
140
3.0
147
2.0
172
     1
173
     1
174
     1
175
     1
176
     7
177
     7
271
     2
178
     7
271
     2
340
2C4
  0
DIMSTYLE
105
312
102
{ACAD_REACTORS
330
313
102
}
330
A
100
AcDbSymbolTableRecord
100
AcDbDimStyleTableRecord
  2
ME10_DIM_16
 70
     0
 41
3.0
 42
0.5
 44
1.0
 73
     0
 74
     0
 77
     1
 78
     8
140
3.0
147
2.0
172
     1
173
     1
174
     1
175
     1
176
     7
177
     7
271
     2
178
     7
271
     2
340
2C4
  0
DIMSTYLE
105
31D
102
{ACAD_REACTORS
330
31E
102
}
330
A
100
AcDbSymbolTableRecord
100
AcDbDimStyleTableRecord
  2
ME10_DIM_17
 70
     0
 41
3.0
 42
0.5
 44
1.0
 73
     0
 74
     0
 77
     1
 78
     8
140
3.0
147
2.0
172
     1
173
     1
174
     1
175
     1
176
     7
177
     7
271
     2
178
     7
271
     2
340
2C4
  0
DIMSTYLE
105
328
102
{ACAD_REACTORS
330
329
102
}
330
A
100
AcDbSymbolTableRecord
100
AcDbDimStyleTableRecord
  2
ME10_DIM_18
 70
     0
 41
3.0
 42
0.5
 44
1.0
 73
     0
 74
     0
 77
     1
 78
     8
140
3.0
147
2.0
172
     1
173
     1
174
     1
175
     1
176
     7
177
     7
271
     2
178
     7
271
     2
340
2C4
  0
DIMSTYLE
105
333
102
{ACAD_REACTORS
330
334
102
}
330
A
100
AcDbSymbolTableRecord
100
AcDbDimStyleTableRecord
  2
ME10_DIM_19
 70
     0
 41
3.0
 42
0.5
 44
1.0
 73
     0
 74
     0
 77
     1
 78
     8
140
3.0
147
2.0
172
     1
173
     1
174
     1
175
     1
176
     7
177
     7
271
     2
178
     7
271
     2
340
2C4
  0
DIMSTYLE
105
33E
102
{ACAD_REACTORS
330
33F
102
}
330
A
100
AcDbSymbolTableRecord
100
AcDbDimStyleTableRecord
  2
ME10_DIM_20
 70
     0
 41
3.0
 42
0.5
 44
1.0
 73
     0
 74
     0
 77
     1
 78
     8
140
3.0
147
2.0
172
     1
173
     1
174
     1
175
     1
176
     7
177
     7
271
     2
178
     7
271
     2
340
2C4
  0
DIMSTYLE
105
349
102
{ACAD_REACTORS
330
34A
102
}
330
A
100
AcDbSymbolTableRecord
100
AcDbDimStyleTableRecord
  2
ME10_DIM_21
 70
     0
 41
3.0
 42
0.5
 44
1.0
 73
     0
 74
     0
 77
     1
 78
     8
140
3.0
147
2.0
172
     1
173
     1
174
     1
175
     1
176
     7
177
     7
271
     2
178
     7
271
     2
340
2C4
  0
DIMSTYLE
105
354
102
{ACAD_REACTORS
330
355
102
}
330
A
100
AcDbSymbolTableRecord
100
AcDbDimStyleTableRecord
  2
ME10_DIM_22
 70
     0
 41
3.0
 42
0.5
 44
1.0
 73
     0
 74
     0
 77
     1
 78
     8
140
3.0
147
2.0
172
     1
173
     1
174
     1
175
     1
176
     7
177
     7
271
     2
178
     7
271
     2
340
2C4
  0
ENDTAB
  0
TABLE
  2
BLOCK_RECORD
  5
1
330
0
100
AcDbSymbolTable
 70
    16
  0
BLOCK_RECORD
  5
1F
330
1
100
AcDbSymbolTableRecord
100
AcDbBlockTableRecord
  2
*Model_Space
340
22
  0
BLOCK_RECORD
  5
1B
330
1
100
AcDbSymbolTableRecord
100
AcDbBlockTableRecord
  2
*Paper_Space
340
1E
  0
BLOCK_RECORD
  5
23
330
1
100
AcDbSymbolTableRecord
100
AcDbBlockTableRecord
  2
*Paper_Space0
340
26
  0
BLOCK_RECORD
  5
72
330
1
100
AcDbSymbolTableRecord
100
AcDbBlockTableRecord
  2
_formato_A4
340
0
102
{BLKREFS
331
75
102
}
  0
BLOCK_RECORD
  5
2C7
330
1
100
AcDbSymbolTableRecord
100
AcDbBlockTableRecord
  2
*D2
340
0
  0
BLOCK_RECORD
  5
2D2
330
1
100
AcDbSymbolTableRecord
100
AcDbBlockTableRecord
  2
*D3
340
0
  0
BLOCK_RECORD
  5
2DD
330
1
100
AcDbSymbolTableRecord
100
AcDbBlockTableRecord
  2
*D4
340
0
  0
BLOCK_RECORD
  5
2E8
330
1
100
AcDbSymbolTableRecord
100
AcDbBlockTableRecord
  2
*D5
340
0
  0
BLOCK_RECORD
  5
2F3
330
1
100
AcDbSymbolTableRecord
100
AcDbBlockTableRecord
  2
*D6
340
0
  0
BLOCK_RECORD
  5
2FE
330
1
100
AcDbSymbolTableRecord
100
AcDbBlockTableRecord
  2
*D7
340
0
  0
BLOCK_RECORD
  5
309
330
1
100
AcDbSymbolTableRecord
100
AcDbBlockTableRecord
  2
*D8
340
0
  0
BLOCK_RECORD
  5
314
330
1
100
AcDbSymbolTableRecord
100
AcDbBlockTableRecord
  2
*D9
340
0
  0
BLOCK_RECORD
  5
31F
330
1
100
AcDbSymbolTableRecord
100
AcDbBlockTableRecord
  2
*D10
340
0
  0
BLOCK_RECORD
  5
32A
330
1
100
AcDbSymbolTableRecord
100
AcDbBlockTableRecord
  2
*D11
340
0
  0
BLOCK_RECORD
  5
335
330
1
100
AcDbSymbolTableRecord
100
AcDbBlockTableRecord
  2
*D12
340
0
  0
BLOCK_RECORD
  5
340
330
1
100
AcDbSymbolTableRecord
100
AcDbBlockTableRecord
  2
*D13
340
0
  0
BLOCK_RECORD
  5
34B
330
1
100
AcDbSymbolTableRecord
100
AcDbBlockTableRecord
  2
*D14
340
0
  0
BLOCK_RECORD
  5
356
330
1
100
AcDbSymbolTableRecord
100
AcDbBlockTableRecord
  2
*D15
340
0
102
{BLKREFS
331
35E
102
}
  0
ENDTAB
  0
ENDSEC
  0
SECTION
  2
BLOCKS
  0
BLOCK
  5
20
330
1F
100
AcDbEntity
  8
0
100
AcDbBlockBegin
  2
*Model_Space
 70
     0
 10
0.0
 20
0.0
 30
0.0
  3
*Model_Space
  1
*Model_Space
  0
ENDBLK
  5
21
330
1F
100
AcDbEntity
  8
0
100
AcDbBlockEnd
  0
BLOCK
  5
1C
330
1B
100
AcDbEntity
 67
     1
  8
0
100
AcDbBlockBegin
  2
*Paper_Space
 70
     0
 10
0.0
 20
0.0
 30
0.0
  3
*Paper_Space
  1
*Paper_Space
  0
ENDBLK
  5
1D
330
1B
100
AcDbEntity
 67
     1
  8
0
100
AcDbBlockEnd
  0
BLOCK
  5
24
330
23
100
AcDbEntity
  8
0
100
AcDbBlockBegin
  2
*Paper_Space0
 70
     0
 10
0.0
 20
0.0
 30
0.0
  3
*Paper_Space0
  1
*Paper_Space0
  0
ENDBLK
  5
25
330
23
100
AcDbEntity
  8
0
100
AcDbBlockEnd
  0
BLOCK
  5
73
330
72
100
AcDbEntity
  8
0
100
AcDbBlockBegin
  2
_formato_A4
 70
     0
 10
-849.350803461536
 20
151.563962226144
 30
0.0
  3
_formato_A4
  1
_formato_A4
  0
LINE
  5
76
330
72
100
AcDbEntity
  8
1
  6
Continuous
 62
     7
100
AcDbLine
 10
-1038.350803461536
 20
171.563962226144
 30
0.0
 11
-854.350803461536
 21
171.563962226144
 31
0.0
  0
LINE
  5
77
330
72
100
AcDbEntity
  8
1
  6
Continuous
 62
     7
100
AcDbLine
 10
-1038.350803461536
 20
156.5639622261439
 30
0.0
 11
-854.350803461536
 21
156.5639622261439
 31
0.0
  0
LINE
  5
78
330
72
100
AcDbEntity
  8
1
  6
Continuous
 62
     7
100
AcDbLine
 10
-1013.350803461536
 20
186.563962226144
 30
0.0
 11
-1013.350803461536
 21
191.563962226144
 31
0.0
  0
LINE
  5
79
330
72
100
AcDbEntity
  8
1
  6
Continuous
 62
     7
100
AcDbLine
 10
-1031.350803461536
 20
186.563962226144
 30
0.0
 11
-1031.350803461536
 21
191.563962226144
 31
0.0
  0
LINE
  5
7A
330
72
100
AcDbEntity
  8
1
  6
Continuous
 62
     7
100
AcDbLine
 10
-1038.350803461536
 20
191.563962226144
 30
0.0
 11
-854.350803461536
 21
191.563962226144
 31
0.0
  0
LINE
  5
7B
330
72
100
AcDbEntity
  8
1
  6
Continuous
 62
     7
100
AcDbLine
 10
-1013.350803461536
 20
181.563962226144
 30
0.0
 11
-1013.350803461536
 21
186.563962226144
 31
0.0
  0
LINE
  5
7C
330
72
100
AcDbEntity
  8
1
  6
Continuous
 62
     7
100
AcDbLine
 10
-1031.350803461536
 20
181.563962226144
 30
0.0
 11
-1031.350803461536
 21
186.563962226144
 31
0.0
  0
LINE
  5
7D
330
72
100
AcDbEntity
  8
1
  6
Continuous
 62
     7
100
AcDbLine
 10
-1038.350803461536
 20
186.563962226144
 30
0.0
 11
-854.350803461536
 21
186.563962226144
 31
0.0
  0
LINE
  5
7E
330
72
100
AcDbEntity
  8
1
  6
Continuous
 62
     7
100
AcDbLine
 10
-1013.350803461536
 20
176.563962226144
 30
0.0
 11
-1013.350803461536
 21
181.563962226144
 31
0.0
  0
LINE
  5
7F
330
72
100
AcDbEntity
  8
1
  6
Continuous
 62
     7
100
AcDbLine
 10
-1031.350803461536
 20
176.563962226144
 30
0.0
 11
-1031.350803461536
 21
181.563962226144
 31
0.0
  0
LINE
  5
80
330
72
100
AcDbEntity
  8
1
  6
Continuous
 62
     7
100
AcDbLine
 10
-1038.350803461536
 20
181.563962226144
 30
0.0
 11
-854.350803461536
 21
181.563962226144
 31
0.0
  0
LINE
  5
81
330
72
100
AcDbEntity
  8
1
  6
Continuous
 62
     7
100
AcDbLine
 10
-1013.350803461536
 20
171.563962226144
 30
0.0
 11
-1013.350803461536
 21
176.563962226144
 31
0.0
  0
LINE
  5
82
330
72
100
AcDbEntity
  8
1
  6
Continuous
 62
     7
100
AcDbLine
 10
-1031.350803461536
 20
171.563962226144
 30
0.0
 11
-1031.350803461536
 21
176.563962226144
 31
0.0
  0
LINE
  5
83
330
72
100
AcDbEntity
  8
1
  6
Continuous
 62
     7
100
AcDbLine
 10
-1038.350803461536
 20
176.563962226144
 30
0.0
 11
-854.350803461536
 21
176.563962226144
 31
0.0
  0
LINE
  5
84
102
{ACAD_REACTORS
330
CE
102
}
330
72
100
AcDbEntity
  8
1
  6
Continuous
 62
     7
100
AcDbLine
 10
-863.5079286216302
 20
162.1219643065244
 30
0.0
 11
-864.8412619549634
 21
161.3527335372937
 31
0.0
  0
LINE
  5
85
102
{ACAD_REACTORS
330
CE
102
}
330
72
100
AcDbEntity
  8
1
  6
Continuous
 62
     7
100
AcDbLine
 10
-864.6745027727933
 20
162.218598758792
 30
0.0
 11
-863.8410769239565
 21
162.6994213638903
 31
0.0
  0
LINE
  5
86
102
{ACAD_REACTORS
330
CE
102
}
330
72
100
AcDbEntity
  8
1
  6
Continuous
 62
     7
100
AcDbLine
 10
-864.6745027727933
 20
163.7306288928106
 30
0.0
 11
-864.6745027727933
 21
162.218598758792
 31
0.0
  0
LINE
  5
87
102
{ACAD_REACTORS
330
CE
102
}
330
72
100
AcDbEntity
  8
1
  6
Continuous
 62
     7
100
AcDbLine
 10
-863.6745027727933
 20
163.7306288928106
 30
0.0
 11
-864.6745027727933
 21
163.7306288928106
 31
0.0
  0
LINE
  5
88
102
{ACAD_REACTORS
330
CE
102
}
330
72
100
AcDbEntity
  8
1
  6
Continuous
 62
     7
100
AcDbLine
 10
-864.6745027727933
 20
164.3972955594773
 30
0.0
 11
-863.6745027727933
 21
164.3972955594773
 31
0.0
  0
LINE
  5
89
102
{ACAD_REACTORS
330
CE
102
}
330
72
100
AcDbEntity
  8
1
  6
Continuous
 62
     7
100
AcDbLine
 10
-864.6745027727933
 20
165.909325693496
 30
0.0
 11
-864.6745027727933
 21
164.3972955594773
 31
0.0
  0
LINE
  5
8A
102
{ACAD_REACTORS
330
CE
102
}
330
72
100
AcDbEntity
  8
1
  6
Continuous
 62
     7
100
AcDbLine
 10
-863.8410769239565
 20
165.4285030883978
 30
0.0
 11
-864.6745027727933
 21
165.909325693496
 31
0.0
  0
LINE
  5
8B
102
{ACAD_REACTORS
330
CE
102
}
330
72
100
AcDbEntity
  8
1
  6
Continuous
 62
     7
100
AcDbLine
 10
-864.8412619549634
 20
166.7751909149943
 30
0.0
 11
-863.5079286216302
 21
166.0059601457635
 31
0.0
  0
LINE
  5
8C
102
{ACAD_REACTORS
330
CF
102
}
330
72
100
AcDbEntity
  8
1
  6
Continuous
 62
     7
100
AcDbLine
 10
-872.0078361061267
 20
162.4106928352072
 30
0.0
 11
-872.0078361061267
 21
165.7172316170807
 31
0.0
  0
LINE
  5
8D
102
{ACAD_REACTORS
330
CF
102
}
330
72
100
AcDbEntity
  8
1
  6
Continuous
 62
     7
100
AcDbLine
 10
-871.34116943946
 20
162.6032141434073
 30
0.0
 11
-871.34116943946
 21
162.4106928352072
 31
0.0
  0
LINE
  5
8E
102
{ACAD_REACTORS
330
CF
102
}
330
72
100
AcDbEntity
  8
1
  6
Continuous
 62
     7
100
AcDbLine
 10
-871.34116943946
 20
165.7172316170807
 30
0.0
 11
-871.34116943946
 21
162.6032141434073
 31
0.0
  0
LINE
  5
8F
102
{ACAD_REACTORS
330
D0
102
}
330
72
100
AcDbEntity
  8
1
  6
Continuous
 62
     7
100
AcDbLine
 10
-868.1744102572899
 20
160.0065796911398
 30
0.0
 11
-870.340984408453
 21
161.2565263168109
 31
0.0
  0
LINE
  5
90
102
{ACAD_REACTORS
330
D0
102
}
330
72
100
AcDbEntity
  8
1
  6
Continuous
 62
     7
100
AcDbLine
 10
-870.0078361061267
 20
161.8339833741767
 30
0.0
 11
-867.8412619549634
 21
160.5840367485056
 31
0.0
  0
LINE
  5
91
102
{ACAD_REACTORS
330
D0
102
}
330
72
100
AcDbEntity
  8
1
  6
Continuous
 62
     7
100
AcDbLine
 10
-870.0078361061267
 20
166.4864623863114
 30
0.0
 11
-870.0078361061267
 21
161.8339833741767
 31
0.0
  0
LINE
  5
92
102
{ACAD_REACTORS
330
D0
102
}
330
72
100
AcDbEntity
  8
1
  6
Continuous
 62
     7
100
AcDbLine
 10
-870.6745027727933
 20
161.8339833741766
 30
0.0
 11
-870.6745027727933
 21
166.4864623863114
 31
0.0
  0
LINE
  5
93
102
{ACAD_REACTORS
330
D1
102
}
330
72
100
AcDbEntity
  8
1
  6
Continuous
 62
     7
100
AcDbLine
 10
-866.50226978975
 20
167.4276626444163
 30
0.0
 11
-867.6745027727933
 21
165.3972955594773
 31
0.0
  0
LINE
  5
94
102
{ACAD_REACTORS
330
D1
102
}
330
72
100
AcDbEntity
  8
1
  6
Continuous
 62
     7
100
AcDbLine
 10
-866.0078361061267
 20
160.8722312967458
 30
0.0
 11
-866.0078361061267
 21
167.2951795381786
 31
0.0
  0
LINE
  5
95
102
{ACAD_REACTORS
330
D1
102
}
330
72
100
AcDbEntity
  8
1
  6
Continuous
 62
     7
100
AcDbLine
 10
-866.6745027727933
 20
164.063962226144
 30
0.0
 11
-866.6745027727933
 21
160.8722312967458
 31
0.0
  0
LINE
  5
96
102
{ACAD_REACTORS
330
D1
102
}
330
72
100
AcDbEntity
  8
1
  6
Continuous
 62
     7
100
AcDbLine
 10
-868.6745027727933
 20
162.4115472987769
 30
0.0
 11
-868.6745027727933
 21
164.063962226144
 31
0.0
  0
LINE
  5
97
102
{ACAD_REACTORS
330
D1
102
}
330
72
100
AcDbEntity
  8
1
  6
Continuous
 62
     7
100
AcDbLine
 10
-869.34116943946
 20
164.063962226144
 30
0.0
 11
-869.34116943946
 21
162.4115472987769
 31
0.0
  0
LINE
  5
98
102
{ACAD_REACTORS
330
D1
102
}
330
72
100
AcDbEntity
  8
1
  6
Continuous
 62
     7
100
AcDbLine
 10
-868.8467357558366
 20
167.4276626444163
 30
0.0
 11
-867.6745027727933
 21
165.3972955594773
 31
0.0
  0
LINE
  5
99
102
{ACAD_REACTORS
330
D1
102
}
330
72
100
AcDbEntity
  8
1
  6
Continuous
 62
     7
100
AcDbLine
 10
-869.34116943946
 20
164.063962226144
 30
0.0
 11
-869.34116943946
 21
167.2951795381786
 31
0.0
  0
LINE
  5
9A
330
72
100
AcDbEntity
  8
1
  6
Continuous
 62
     7
100
AcDbLine
 10
-867.6745027727933
 20
159.063962226144
 30
0.0
 11
-876.0909380479349
 21
163.9195979618026
 31
0.0
  0
LINE
  5
9B
330
72
100
AcDbEntity
  8
1
  6
Continuous
 62
     7
100
AcDbLine
 10
-859.2580674976518
 20
163.9195979618026
 30
0.0
 11
-867.6745027727933
 21
159.063962226144
 31
0.0
  0
LINE
  5
9C
330
72
100
AcDbEntity
  8
1
  6
Continuous
 62
     7
100
AcDbLine
 10
-867.6745027727933
 20
169.063962226144
 30
0.0
 11
-859.2580674976518
 21
164.2083264904854
 31
0.0
  0
LINE
  5
9D
330
72
100
AcDbEntity
  8
1
  6
Continuous
 62
     7
100
AcDbLine
 10
-876.0909380479349
 20
164.2083264904854
 30
0.0
 11
-867.6745027727933
 21
169.063962226144
 31
0.0
  0
LINE
  5
9E
102
{ACAD_REACTORS
330
D1
102
}
330
72
100
AcDbEntity
  8
1
  6
Continuous
 62
     7
100
AcDbLine
 10
-868.6745027727933
 20
165.7960130337129
 30
0.0
 11
-868.6745027727933
 21
164.063962226144
 31
0.0
  0
LINE
  5
9F
102
{ACAD_REACTORS
330
D1
102
}
330
72
100
AcDbEntity
  8
1
  6
Continuous
 62
     7
100
AcDbLine
 10
-867.8188403400908
 20
164.313962226144
 30
0.0
 11
-868.6745027727933
 21
165.7960130337129
 31
0.0
  0
LINE
  5
A0
102
{ACAD_REACTORS
330
D1
102
}
330
72
100
AcDbEntity
  8
1
  6
Continuous
 62
     7
100
AcDbLine
 10
-866.6745027727933
 20
165.7960130337129
 30
0.0
 11
-867.5301652054959
 21
164.313962226144
 31
0.0
  0
LINE
  5
A1
102
{ACAD_REACTORS
330
D1
102
}
330
72
100
AcDbEntity
  8
1
  6
Continuous
 62
     7
100
AcDbLine
 10
-866.6745027727933
 20
164.063962226144
 30
0.0
 11
-866.6745027727933
 21
165.7960130337129
 31
0.0
  0
LINE
  5
A2
102
{ACAD_REACTORS
330
CE
102
}
330
72
100
AcDbEntity
  8
1
  6
Continuous
 62
     7
100
AcDbLine
 10
-865.3411694394599
 20
161.6414620659766
 30
0.0
 11
-865.3411694394599
 21
166.4864623863114
 31
0.0
  0
LINE
  5
A3
330
72
100
AcDbEntity
  8
1
  6
Continuous
 62
     7
100
AcDbLine
 10
-1038.350803461536
 20
443.5639622261441
 30
0.0
 11
-1038.350803461536
 21
156.5639622261439
 31
0.0
  0
LINE
  5
A4
330
72
100
AcDbEntity
  8
1
  6
Continuous
 62
     7
100
AcDbLine
 10
-854.350803461536
 20
443.5639622261441
 30
0.0
 11
-1038.350803461536
 21
443.5639622261441
 31
0.0
  0
LINE
  5
A5
330
72
100
AcDbEntity
  8
1
  6
Continuous
 62
     7
100
AcDbLine
 10
-854.350803461536
 20
156.5639622261439
 30
0.0
 11
-854.350803461536
 21
443.5639622261441
 31
0.0
  0
LINE
  5
A6
330
72
100
AcDbEntity
  8
1
  6
Continuous
 62
     7
100
AcDbLine
 10
-849.350803461536
 20
448.5639622261441
 30
0.0
 11
-1059.350803461536
 21
448.5639622261441
 31
0.0
  0
LINE
  5
A7
330
72
100
AcDbEntity
  8
1
  6
Continuous
 62
     7
100
AcDbLine
 10
-1059.350803461536
 20
448.5639622261441
 30
0.0
 11
-1059.350803461536
 21
151.563962226144
 31
0.0
  0
LINE
  5
A8
330
72
100
AcDbEntity
  8
1
  6
Continuous
 62
     7
100
AcDbLine
 10
-1059.350803461536
 20
151.563962226144
 30
0.0
 11
-849.350803461536
 21
151.563962226144
 31
0.0
  0
LINE
  5
A9
330
72
100
AcDbEntity
  8
1
  6
Continuous
 62
     7
100
AcDbLine
 10
-849.350803461536
 20
151.563962226144
 30
0.0
 11
-849.350803461536
 21
448.5639622261441
 31
0.0
  0
LINE
  5
AA
330
72
100
AcDbEntity
  8
1
  6
Continuous
 62
     7
100
AcDbLine
 10
-1059.350803461536
 20
300.0639622261438
 30
0.0
 11
-1044.350803461536
 21
300.0639622261438
 31
0.0
  0
LINE
  5
AB
330
72
100
AcDbEntity
  8
1
  6
Continuous
 62
     7
100
AcDbLine
 10
-1038.350803461536
 20
161.5639622261439
 30
0.0
 11
-1008.350803461536
 21
161.5639622261439
 31
0.0
  0
LINE
  5
AC
330
72
100
AcDbEntity
  8
1
  6
Continuous
 62
     7
100
AcDbLine
 10
-1008.350803461536
 20
171.563962226144
 30
0.0
 11
-1008.350803461536
 21
156.563962226144
 31
0.0
  0
LINE
  5
AD
330
72
100
AcDbEntity
  8
1
  6
Continuous
 62
     7
100
AcDbLine
 10
-880.9982020840506
 20
171.563962226144
 30
0.0
 11
-880.9982020840506
 21
156.563962226144
 31
0.0
  0
LINE
  5
AE
330
72
100
AcDbEntity
  8
1
  6
Continuous
 62
     7
100
AcDbLine
 10
-898.350803461536
 20
171.563962226144
 30
0.0
 11
-898.350803461536
 21
156.563962226144
 31
0.0
  0
LINE
  5
AF
330
72
100
AcDbEntity
  8
1
  6
Continuous
 62
     7
100
AcDbLine
 10
-1038.350803461536
 20
171.563962226144
 30
0.0
 11
-1038.350803461536
 21
156.5639622261439
 31
0.0
  0
LINE
  5
B0
330
72
100
AcDbEntity
  8
1
  6
Continuous
 62
     7
100
AcDbLine
 10
-1038.350803461536
 20
166.5639622261439
 30
0.0
 11
-1008.350803461536
 21
166.5639622261439
 31
0.0
  0
ARC
  5
B1
102
{ACAD_REACTORS
330
CE
102
}
330
72
100
AcDbEntity
  8
1
  6
Continuous
 62
     7
100
AcDbCircle
 10
-863.6745027727933
 20
162.4106928352072
 30
0.0
 40
0.3333333333332156
100
AcDbArc
 50
299.9816393688434
 51
119.9816393688311
  0
ARC
  5
B2
102
{ACAD_REACTORS
330
CE
102
}
330
72
100
AcDbEntity
  8
1
  6
Continuous
 62
     7
100
AcDbCircle
 10
-863.6745027727933
 20
164.063962226144
 30
0.0
 40
0.3333333333333997
100
AcDbArc
 50
270.0
 51
90.0
  0
ARC
  5
B3
102
{ACAD_REACTORS
330
CE
102
}
330
72
100
AcDbEntity
  8
1
  6
Continuous
 62
     7
100
AcDbCircle
 10
-863.6745027727933
 20
165.7172316170807
 30
0.0
 40
0.3333333333333709
100
AcDbArc
 50
240.0183606311493
 51
60.01836063115896
  0
ARC
  5
B4
102
{ACAD_REACTORS
330
CF
102
}
330
72
100
AcDbEntity
  8
1
  6
Continuous
 62
     7
100
AcDbCircle
 10
-871.6745027727933
 20
162.4106928352072
 30
0.0
 40
0.3333333333333712
100
AcDbArc
 50
180.0
 51
0.0
  0
ARC
  5
B5
102
{ACAD_REACTORS
330
CF
102
}
330
72
100
AcDbEntity
  8
1
  6
Continuous
 62
     7
100
AcDbCircle
 10
-871.6745027727933
 20
165.7172316170807
 30
0.0
 40
0.3333333333332575
100
AcDbArc
 50
0.0
 51
180.0
  0
ARC
  5
B6
102
{ACAD_REACTORS
330
D0
102
}
330
72
100
AcDbEntity
  8
1
  6
Continuous
 62
     7
100
AcDbCircle
 10
-868.0078361061267
 20
160.2953082198227
 30
0.0
 40
0.3333333333333709
100
AcDbArc
 50
240.0183606311493
 51
60.01836063115181
  0
ARC
  5
B7
102
{ACAD_REACTORS
330
D0
102
}
330
72
100
AcDbEntity
  8
1
  6
Continuous
 62
     7
100
AcDbCircle
 10
-870.34116943946
 20
166.4864623863114
 30
0.0
 40
0.3333333333333712
100
AcDbArc
 50
0.0
 51
180.0
  0
ARC
  5
B8
102
{ACAD_REACTORS
330
D1
102
}
330
72
100
AcDbEntity
  8
1
  6
Continuous
 62
     7
100
AcDbCircle
 10
-866.272802318602
 20
167.2951795381786
 30
0.0
 40
0.2649662124753149
100
AcDbArc
 50
0.0
 51
149.9999999999756
  0
ARC
  5
B9
102
{ACAD_REACTORS
330
D1
102
}
330
72
100
AcDbEntity
  8
1
  6
Continuous
 62
     7
100
AcDbCircle
 10
-866.3411694394599
 20
160.8722312967458
 30
0.0
 40
0.3333333333333712
100
AcDbArc
 50
180.0
 51
0.0
  0
ARC
  5
BA
102
{ACAD_REACTORS
330
D1
102
}
330
72
100
AcDbEntity
  8
1
  6
Continuous
 62
     7
100
AcDbCircle
 10
-869.0078361061267
 20
162.4115472987769
 30
0.0
 40
0.3333333333333712
100
AcDbArc
 50
180.0
 51
0.0
  0
ARC
  5
BB
102
{ACAD_REACTORS
330
D1
102
}
330
72
100
AcDbEntity
  8
1
  6
Continuous
 62
     7
100
AcDbCircle
 10
-869.0762032269847
 20
167.2951795381786
 30
0.0
 40
0.2649662124753319
100
AcDbArc
 50
30.00000000001207
 51
180.0
  0
ARC
  5
BC
102
{ACAD_REACTORS
330
CE
102
}
330
72
100
AcDbEntity
  8
1
  6
Continuous
 62
     7
100
AcDbCircle
 10
-865.0078361061267
 20
161.6414620659766
 30
0.0
 40
0.3333333333332575
100
AcDbArc
 50
180.0
 51
299.9816393688482
  0
ARC
  5
BD
102
{ACAD_REACTORS
330
CE
102
}
330
72
100
AcDbEntity
  8
1
  6
Continuous
 62
     7
100
AcDbCircle
 10
-865.0078361061267
 20
166.4864623863114
 30
0.0
 40
0.3333333333333955
100
AcDbArc
 50
60.01836063115181
 51
180.0
  0
ARC
  5
BE
330
72
100
AcDbEntity
  8
1
  6
Continuous
 62
     7
100
AcDbCircle
 10
-859.3413545732334
 20
164.063962226144
 30
0.0
 40
0.1666666666666324
100
AcDbArc
 50
299.9816393688386
 51
60.01836063115653
  0
ARC
  5
BF
330
72
100
AcDbEntity
  8
1
  6
Continuous
 62
     7
100
AcDbCircle
 10
-876.0076509723532
 20
164.063962226144
 30
0.0
 40
0.1666666666666646
100
AcDbArc
 50
119.9816393688773
 51
240.0183606311275
  0
ARC
  5
C0
102
{ACAD_REACTORS
330
D0
102
}
330
72
100
AcDbEntity
  8
1
  6
Continuous
 62
     7
100
AcDbCircle
 10
-870.0078361061267
 20
161.8339833741767
 30
0.0
 40
0.6666666666666288
100
AcDbArc
 50
180.0000000000097
 51
240.018360631159
  0
ARC
  5
C1
102
{ACAD_REACTORS
330
D1
102
}
330
72
100
AcDbEntity
  8
1
  6
Continuous
 62
     7
100
AcDbCircle
 10
-867.6745027727933
 20
164.3972955594773
 30
0.0
 40
0.1666666666667223
100
AcDbArc
 50
209.9999999999702
 51
330.0000000000103
  0
MTEXT
  5
C3
330
72
100
AcDbEntity
  8
1
 62
     7
100
AcDbMText
 10
-889.6745027727933
 20
161.6246016469001
 30
0.0
 40
4.5
 41
0.0
 71
     5
 72
     1
  1
1:1
  7
CONVERTER_11
 73
     1
 44
1.32052821128451
  0
MTEXT
  5
C4
330
72
100
AcDbEntity
  8
1
 62
     7
100
AcDbMText
 10
-889.6745027727933
 20
167.8246016469
 30
0.0
 40
3.0
 41
0.0
 71
     5
 72
     1
  1
Scale
  7
CONVERTER_11
 73
     1
 44
1.32052821128451
  0
MTEXT
  5
C6
330
72
100
AcDbEntity
  8
1
 62
     7
100
AcDbMText
 10
-1004.774502772793
 20
164.063962226144
 30
0.0
 40
4.5
 41
0.0
 71
     4
 72
     1
  1
MKAXS IVG20\PFlanged metal hood, stainless steel lever, top entry M20 - EMC
  7
CONVERTER_12
 73
     1
 44
0.90036014405762
  0
MTEXT
  5
C7
330
72
100
AcDbEntity
  8
1
 62
     7
100
AcDbMText
 10
-1026.750803461536
 20
159.0639622261439
 30
0.0
 40
3.0
 41
0.0
 71
     4
 72
     1
  1
D.Cominelli
  7
CONVERTER_11
 73
     1
 44
1.32052821128451
  0
MTEXT
  5
C8
330
72
100
AcDbEntity
  8
1
 62
     7
100
AcDbMText
 10
-1037.350803461536
 20
159.0639622261439
 30
0.0
 40
3.0
 41
0.0
 71
     4
 72
     1
  1
Sign.
  7
CONVERTER_11
 73
     1
 44
1.32052821128451
  0
MTEXT
  5
C9
330
72
100
AcDbEntity
  8
1
 62
     7
100
AcDbMText
 10
-1026.750803461536
 20
164.0639622261439
 30
0.0
 40
3.0
 41
0.0
 71
     4
 72
     1
  1
26/09/18
  7
CONVERTER_11
 73
     1
 44
1.32052821128451
  0
MTEXT
  5
CA
330
72
100
AcDbEntity
  8
1
 62
     7
100
AcDbMText
 10
-1037.350803461536
 20
164.0639622261439
 30
0.0
 40
3.0
 41
0.0
 71
     4
 72
     1
  1
Date
  7
CONVERTER_11
 73
     1
 44
1.32052821128451
  0
MTEXT
  5
CB
330
72
100
AcDbEntity
  8
1
 62
     7
100
AcDbMText
 10
-1043.350803461536
 20
303.0639622261438
 30
0.0
 40
4.0
 41
0.0
 71
     5
 72
     1
  1
Diritti riservati      All rights reserved
  7
CONVERTER_11
 11
0.0
 21
1.0
 31
0.0
 73
     1
 44
1.32052821128451
  0
MTEXT
  5
CD
330
72
100
AcDbEntity
  8
1
 62
     7
100
AcDbMText
 10
-1023.350803461536
 20
169.063962226144
 30
0.0
 40
2.5
 41
0.0
 71
     5
 72
     1
  1
dimensions in mm
  7
CONVERTER_13
 73
     1
 44
0.60024009603842
  0
HATCH
  5
CE
330
72
100
AcDbEntity
  8
1
  6
Continuous
 62
     7
100
AcDbHatch
 10
0.0
 20
0.0
 30
0.0
210
0.0
220
0.0
230
1.0
  2
SOLID
 70
     1
 71
     1
 91
        1
 92
        1
 93
       14
 72
     2
 10
-865.0078361061267
 20
166.4864623863114
 40
0.3333333333333955
 50
60.01836063115181
 51
180.0
 73
     1
 72
     1
 10
-865.3411694394599
 20
166.4864623863114
 11
-865.3411694394599
 21
161.6414620659766
 72
     2
 10
-865.0078361061267
 20
161.6414620659766
 40
0.3333333333332575
 50
180.0
 51
299.9816393688482
 73
     1
 72
     1
 10
-864.8412619549634
 20
161.3527335372937
 11
-863.5079286216302
 21
162.1219643065244
 72
     2
 10
-863.6745027727933
 20
162.4106928352072
 40
0.3333333333332156
 50
299.9816393688434
 51
479.9816393688311
 73
     1
 72
     1
 10
-863.8410769239565
 20
162.6994213638903
 11
-864.6745027727933
 21
162.218598758792
 72
     1
 10
-864.6745027727933
 20
162.218598758792
 11
-864.6745027727933
 21
163.7306288928106
 72
     1
 10
-864.6745027727933
 20
163.7306288928106
 11
-863.6745027727933
 21
163.7306288928106
 72
     2
 10
-863.6745027727933
 20
164.063962226144
 40
0.3333333333333997
 50
270.0
 51
450.0
 73
     1
 72
     1
 10
-863.6745027727933
 20
164.3972955594773
 11
-864.6745027727933
 21
164.3972955594773
 72
     1
 10
-864.6745027727933
 20
164.3972955594773
 11
-864.6745027727933
 21
165.909325693496
 72
     1
 10
-864.6745027727933
 20
165.909325693496
 11
-863.8410769239565
 21
165.4285030883978
 72
     2
 10
-863.6745027727933
 20
165.7172316170807
 40
0.3333333333333709
 50
240.0183606311493
 51
420.0183606311589
 73
     1
 72
     1
 10
-863.5079286216302
 20
166.0059601457635
 11
-864.8412619549634
 21
166.7751909149943
 97
       14
330
B3
330
8A
330
89
330
88
330
B2
330
87
330
86
330
85
330
B1
330
84
330
BC
330
A2
330
BD
330
8B
 75
     0
 76
     1
 98
        1
 10
0.0
 20
0.0
  0
HATCH
  5
CF
330
72
100
AcDbEntity
  8
1
  6
Continuous
 62
     7
100
AcDbHatch
 10
0.0
 20
0.0
 30
0.0
210
0.0
220
0.0
230
1.0
  2
SOLID
 70
     1
 71
     1
 91
        1
 92
        1
 93
        5
 72
     2
 10
-871.6745027727933
 20
165.7172316170807
 40
0.3333333333332575
 50
0.0
 51
180.0
 73
     1
 72
     1
 10
-872.0078361061267
 20
165.7172316170807
 11
-872.0078361061267
 21
162.4106928352072
 72
     2
 10
-871.6745027727933
 20
162.4106928352072
 40
0.3333333333333712
 50
180.0
 51
360.0
 73
     1
 72
     1
 10
-871.34116943946
 20
162.4106928352072
 11
-871.34116943946
 21
162.6032141434073
 72
     1
 10
-871.34116943946
 20
162.6032141434073
 11
-871.34116943946
 21
165.7172316170807
 97
        5
330
B5
330
8C
330
B4
330
8D
330
8E
 75
     0
 76
     1
 98
        1
 10
0.0
 20
0.0
  0
HATCH
  5
D0
330
72
100
AcDbEntity
  8
1
  6
Continuous
 62
     7
100
AcDbHatch
 10
0.0
 20
0.0
 30
0.0
210
0.0
220
0.0
230
1.0
  2
SOLID
 70
     1
 71
     1
 91
        1
 92
        1
 93
        7
 72
     2
 10
-870.34116943946
 20
166.4864623863114
 40
0.3333333333333712
 50
0.0
 51
180.0
 73
     1
 72
     1
 10
-870.6745027727933
 20
166.4864623863114
 11
-870.6745027727933
 21
161.8339833741766
 72
     2
 10
-870.0078361061267
 20
161.8339833741767
 40
0.6666666666666288
 50
180.0000000000097
 51
240.018360631159
 73
     1
 72
     1
 10
-870.340984408453
 20
161.2565263168109
 11
-868.1744102572899
 21
160.0065796911398
 72
     2
 10
-868.0078361061267
 20
160.2953082198227
 40
0.3333333333333709
 50
240.0183606311493
 51
420.0183606311518
 73
     1
 72
     1
 10
-867.8412619549634
 20
160.5840367485056
 11
-870.0078361061267
 21
161.8339833741767
 72
     1
 10
-870.0078361061267
 20
161.8339833741767
 11
-870.0078361061267
 21
166.4864623863114
 97
        7
330
B7
330
92
330
C0
330
8F
330
B6
330
90
330
91
 75
     0
 76
     1
 98
        1
 10
0.0
 20
0.0
  0
HATCH
  5
D1
330
72
100
AcDbEntity
  8
1
  6
Continuous
 62
     7
100
AcDbHatch
 10
0.0
 20
0.0
 30
0.0
210
0.0
220
0.0
230
1.0
  2
SOLID
 70
     1
 71
     1
 91
        1
 92
        1
 93
       16
 72
     2
 10
-866.272802318602
 20
167.2951795381786
 40
0.2649662124753149
 50
210.0000000000244
 51
360.0
 73
     0
 72
     1
 10
-866.0078361061267
 20
167.2951795381786
 11
-866.0078361061267
 21
160.8722312967458
 72
     2
 10
-866.3411694394599
 20
160.8722312967458
 40
0.3333333333333712
 50
0.0
 51
180.0
 73
     0
 72
     1
 10
-866.6745027727933
 20
160.8722312967458
 11
-866.6745027727933
 21
164.063962226144
 72
     1
 10
-866.6745027727933
 20
164.063962226144
 11
-866.6745027727933
 21
165.7960130337129
 72
     1
 10
-866.6745027727933
 20
165.7960130337129
 11
-867.5301652054959
 21
164.313962226144
 72
     2
 10
-867.6745027727933
 20
164.3972955594773
 40
0.1666666666667223
 50
29.99999999998969
 51
150.0000000000299
 73
     0
 72
     1
 10
-867.8188403400908
 20
164.313962226144
 11
-868.6745027727933
 21
165.7960130337129
 72
     1
 10
-868.6745027727933
 20
165.7960130337129
 11
-868.6745027727933
 21
164.063962226144
 72
     1
 10
-868.6745027727933
 20
164.063962226144
 11
-868.6745027727933
 21
162.4115472987769
 72
     2
 10
-869.0078361061267
 20
162.4115472987769
 40
0.3333333333333712
 50
0.0
 51
180.0
 73
     0
 72
     1
 10
-869.34116943946
 20
162.4115472987769
 11
-869.34116943946
 21
164.063962226144
 72
     1
 10
-869.34116943946
 20
164.063962226144
 11
-869.34116943946
 21
167.2951795381786
 72
     2
 10
-869.0762032269847
 20
167.2951795381786
 40
0.2649662124753319
 50
180.0
 51
329.9999999999879
 73
     0
 72
     1
 10
-868.8467357558366
 20
167.4276626444163
 11
-867.6745027727933
 21
165.3972955594773
 72
     1
 10
-867.6745027727933
 20
165.3972955594773
 11
-866.50226978975
 21
167.4276626444163
 97
       16
330
98
330
BB
330
99
330
97
330
BA
330
96
330
9E
330
9F
330
C1
330
A0
330
A1
330
95
330
B9
330
94
330
B8
330
93
 75
     0
 76
     1
 98
        1
 10
0.0
 20
0.0
  0
ENDBLK
  5
74
330
72
100
AcDbEntity
  8
0
100
AcDbBlockEnd
  0
BLOCK
  5
2CE
330
2C7
100
AcDbEntity
  8
0
100
AcDbBlockBegin
  2
*D2
 70
     1
 10
0.0
 20
0.0
 30
0.0
  3
*D2
  1
*D2
  0
LINE
  5
2C8
330
2C7
100
AcDbEntity
  8
1
  6
Continuous
 62
     7
100
AcDbLine
 10
-921.909596222377
 20
330.1077046658806
 30
0.0
 11
-875.9596051666275
 21
330.1077046658806
 31
0.0
  0
LINE
  5
2C9
330
2C7
100
AcDbEntity
  8
1
  6
Continuous
 62
     7
100
AcDbLine
 10
-875.9596051666275
 20
286.95131794803
 30
0.0
 11
-875.9596051666275
 21
331.1077046658806
 31
0.0
  0
LINE
  5
2CA
330
2C7
100
AcDbEntity
  8
1
  6
Continuous
 62
     7
100
AcDbLine
 10
-921.909596222377
 20
264.85131794803
 30
0.0
 11
-921.909596222377
 21
331.1077046658806
 31
0.0
  0
SOLID
  5
2CB
330
2C7
100
AcDbEntity
  8
1
 62
     7
100
AcDbTrace
 10
-918.909596222377
 20
330.5026621586427
 30
0.0
 11
-918.909596222377
 21
329.7127471731184
 31
0.0
 12
-921.909596222377
 22
330.1077046658806
 32
0.0
 13
-921.909596222377
 23
330.1077046658806
 33
0.0
  0
SOLID
  5
2CC
330
2C7
100
AcDbEntity
  8
1
 62
     7
100
AcDbTrace
 10
-878.9596051666275
 20
329.7127471731184
 30
0.0
 11
-878.9596051666275
 21
330.5026621586427
 31
0.0
 12
-875.9596051666275
 22
330.1077046658806
 32
0.0
 13
-875.9596051666275
 23
330.1077046658806
 33
0.0
  0
MTEXT
  5
2CD
330
2C7
100
AcDbEntity
  8
1
 62
     7
100
AcDbMText
 10
-903.0596006945023
 20
332.4077046658806
 30
0.0
 40
3.0
 41
0.0
 71
     7
 72
     1
  1
45,6
  7
CONVERTER_14
 11
0.9999999999970619
 21
2.424068405545306E-6
 31
0.0
 73
     1
 44
0.60024009603842
  0
ENDBLK
  5
2CF
330
2C7
100
AcDbEntity
  8
0
100
AcDbBlockEnd
  0
BLOCK
  5
2D9
330
2D2
100
AcDbEntity
  8
0
100
AcDbBlockBegin
  2
*D3
 70
     1
 10
0.0
 20
0.0
 30
0.0
  3
*D3
  1
*D3
  0
LINE
  5
2D3
330
2D2
100
AcDbEntity
  8
1
  6
Continuous
 62
     7
100
AcDbLine
 10
-948.9095962223769
 20
291.95131794803
 30
0.0
 11
-948.9095962223769
 21
234.95131794803
 31
0.0
  0
LINE
  5
2D4
330
2D2
100
AcDbEntity
  8
1
  6
Continuous
 62
     7
100
AcDbLine
 10
-988.1595962223769
 20
234.95131794803
 30
0.0
 11
-947.9095962223769
 21
234.95131794803
 31
0.0
  0
LINE
  5
2D5
330
2D2
100
AcDbEntity
  8
1
  6
Continuous
 62
     7
100
AcDbLine
 10
-987.4095962223769
 20
291.95131794803
 30
0.0
 11
-947.9095962223769
 21
291.95131794803
 31
0.0
  0
SOLID
  5
2D6
330
2D2
100
AcDbEntity
  8
1
 62
     7
100
AcDbTrace
 10
-948.5146387296147
 20
288.95131794803
 30
0.0
 11
-949.304553715139
 21
288.95131794803
 31
0.0
 12
-948.9095962223769
 22
291.95131794803
 32
0.0
 13
-948.9095962223769
 23
291.95131794803
 33
0.0
  0
SOLID
  5
2D7
330
2D2
100
AcDbEntity
  8
1
 62
     7
100
AcDbTrace
 10
-949.304553715139
 20
237.95131794803
 30
0.0
 11
-948.5146387296147
 21
237.95131794803
 31
0.0
 12
-948.9095962223769
 22
234.95131794803
 32
0.0
 13
-948.9095962223769
 23
234.95131794803
 33
0.0
  0
MTEXT
  5
2D8
330
2D2
100
AcDbEntity
  8
1
 62
     7
100
AcDbMText
 10
-950.9095962223769
 20
261.20131794803
 30
0.0
 40
3.0
 41
0.0
 71
     7
 72
     1
  1
57
  7
CONVERTER_14
 11
0.0
 21
1.0
 31
0.0
 73
     1
 44
0.60024009603842
  0
ENDBLK
  5
2DA
330
2D2
100
AcDbEntity
  8
0
100
AcDbBlockEnd
  0
BLOCK
  5
2E4
330
2DD
100
AcDbEntity
  8
0
100
AcDbBlockBegin
  2
*D4
 70
     1
 10
0.0
 20
0.0
 30
0.0
  3
*D4
  1
*D4
  0
LINE
  5
2DE
330
2DD
100
AcDbEntity
  8
1
  6
Continuous
 62
     7
100
AcDbLine
 10
-916.409596222377
 20
320.1077046658806
 30
0.0
 11
-892.409596222377
 21
320.1077046658806
 31
0.0
  0
LINE
  5
2DF
330
2DD
100
AcDbEntity
  8
1
  6
Continuous
 62
     7
100
AcDbLine
 10
-892.409596222377
 20
292.45131794803
 30
0.0
 11
-892.409596222377
 21
321.1077046658806
 31
0.0
  0
LINE
  5
2E0
330
2DD
100
AcDbEntity
  8
1
  6
Continuous
 62
     7
100
AcDbLine
 10
-916.409596222377
 20
292.45131794803
 30
0.0
 11
-916.409596222377
 21
321.1077046658806
 31
0.0
  0
SOLID
  5
2E1
330
2DD
100
AcDbEntity
  8
1
 62
     7
100
AcDbTrace
 10
-913.409596222377
 20
320.5026621586427
 30
0.0
 11
-913.409596222377
 21
319.7127471731184
 31
0.0
 12
-916.409596222377
 22
320.1077046658806
 32
0.0
 13
-916.409596222377
 23
320.1077046658806
 33
0.0
  0
SOLID
  5
2E2
330
2DD
100
AcDbEntity
  8
1
 62
     7
100
AcDbTrace
 10
-895.409596222377
 20
319.7127471731184
 30
0.0
 11
-895.409596222377
 21
320.5026621586427
 31
0.0
 12
-892.409596222377
 22
320.1077046658806
 32
0.0
 13
-892.409596222377
 23
320.1077046658806
 33
0.0
  0
MTEXT
  5
2E3
330
2DD
100
AcDbEntity
  8
1
 62
     7
100
AcDbMText
 10
-906.8695962223698
 20
322.1076987026723
 30
0.0
 40
3.0
 41
0.0
 71
     7
 72
     1
  1
\C7;\U+25d8\C7;24
  7
CONVERTER_14
 11
0.9999999999970619
 21
2.424068405545306E-6
 31
0.0
 73
     1
 44
0.60024009603842
  0
ENDBLK
  5
2E5
330
2DD
100
AcDbEntity
  8
0
100
AcDbBlockEnd
  0
BLOCK
  5
2EF
330
2E8
100
AcDbEntity
  8
0
100
AcDbBlockBegin
  2
*D5
 70
     1
 10
0.0
 20
0.0
 30
0.0
  3
*D5
  1
*D5
  0
LINE
  5
2E9
330
2E8
100
AcDbEntity
  8
1
  6
Continuous
 62
     7
100
AcDbLine
 10
-1009.909596222377
 20
222.95131794803
 30
0.0
 11
-989.9095962223769
 21
222.95131794803
 31
0.0
  0
LINE
  5
2EA
330
2E8
100
AcDbEntity
  8
1
  6
Continuous
 62
     7
100
AcDbLine
 10
-989.9095962223769
 20
234.45131794803
 30
0.0
 11
-989.9095962223769
 21
221.95131794803
 31
0.0
  0
LINE
  5
2EB
330
2E8
100
AcDbEntity
  8
1
  6
Continuous
 62
     7
100
AcDbLine
 10
-1009.909596222377
 20
234.45131794803
 30
0.0
 11
-1009.909596222377
 21
221.95131794803
 31
0.0
  0
SOLID
  5
2EC
330
2E8
100
AcDbEntity
  8
1
 62
     7
100
AcDbTrace
 10
-1006.909596222377
 20
223.3462754407922
 30
0.0
 11
-1006.909596222377
 21
222.5563604552678
 31
0.0
 12
-1009.909596222377
 22
222.95131794803
 32
0.0
 13
-1009.909596222377
 23
222.95131794803
 33
0.0
  0
SOLID
  5
2ED
330
2E8
100
AcDbEntity
  8
1
 62
     7
100
AcDbTrace
 10
-992.9095962223769
 20
222.5563604552678
 30
0.0
 11
-992.9095962223769
 21
223.3462754407922
 31
0.0
 12
-989.9095962223769
 22
222.95131794803
 32
0.0
 13
-989.9095962223769
 23
222.95131794803
 33
0.0
  0
MTEXT
  5
2EE
330
2E8
100
AcDbEntity
  8
1
 62
     7
100
AcDbMText
 10
-1002.66959622237
 20
224.9513119848217
 30
0.0
 40
3.0
 41
0.0
 71
     7
 72
     1
  1
\C7;M\C7;20
  7
CONVERTER_14
 11
0.9999999999970619
 21
2.424068405545306E-6
 31
0.0
 73
     1
 44
0.60024009603842
  0
ENDBLK
  5
2F0
330
2E8
100
AcDbEntity
  8
0
100
AcDbBlockEnd
  0
BLOCK
  5
2FA
330
2F3
100
AcDbEntity
  8
0
100
AcDbBlockBegin
  2
*D6
 70
     1
 10
0.0
 20
0.0
 30
0.0
  3
*D6
  1
*D6
  0
LINE
  5
2F4
330
2F3
100
AcDbEntity
  8
1
  6
Continuous
 62
     7
100
AcDbLine
 10
-1026.909596222377
 20
407.5318147757739
 30
0.0
 11
-972.9095962223768
 21
407.5318147757739
 31
0.0
  0
LINE
  5
2F5
330
2F3
100
AcDbEntity
  8
1
  6
Continuous
 62
     7
100
AcDbLine
 10
-972.9095962223768
 20
376.235548117115
 30
0.0
 11
-972.9095962223768
 21
408.5318147757739
 31
0.0
  0
LINE
  5
2F6
330
2F3
100
AcDbEntity
  8
1
  6
Continuous
 62
     7
100
AcDbLine
 10
-1026.909596222377
 20
376.235548117115
 30
0.0
 11
-1026.909596222377
 21
408.5318147757739
 31
0.0
  0
SOLID
  5
2F7
330
2F3
100
AcDbEntity
  8
1
 62
     7
100
AcDbTrace
 10
-1023.909596222377
 20
407.9267722685361
 30
0.0
 11
-1023.909596222377
 21
407.1368572830118
 31
0.0
 12
-1026.909596222377
 22
407.5318147757739
 32
0.0
 13
-1026.909596222377
 23
407.5318147757739
 33
0.0
  0
SOLID
  5
2F8
330
2F3
100
AcDbEntity
  8
1
 62
     7
100
AcDbTrace
 10
-975.9095962223768
 20
407.1368572830118
 30
0.0
 11
-975.9095962223768
 21
407.9267722685361
 31
0.0
 12
-972.9095962223768
 22
407.5318147757739
 32
0.0
 13
-972.9095962223768
 23
407.5318147757739
 33
0.0
  0
MTEXT
  5
2F9
330
2F3
100
AcDbEntity
  8
1
 62
     7
100
AcDbMText
 10
-1002.159596222377
 20
409.5318147757739
 30
0.0
 40
3.0
 41
0.0
 71
     7
 72
     1
  1
54
  7
CONVERTER_14
 11
0.9999999999970619
 21
2.424068405545306E-6
 31
0.0
 73
     1
 44
0.60024009603842
  0
ENDBLK
  5
2FB
330
2F3
100
AcDbEntity
  8
0
100
AcDbBlockEnd
  0
BLOCK
  5
305
330
2FE
100
AcDbEntity
  8
0
100
AcDbBlockBegin
  2
*D7
 70
     1
 10
0.0
 20
0.0
 30
0.0
  3
*D7
  1
*D7
  0
LINE
  5
2FF
330
2FE
100
AcDbEntity
  8
1
  6
Continuous
 62
     7
100
AcDbLine
 10
-960.9095962223769
 20
393.235548117115
 30
0.0
 11
-960.9095962223769
 21
358.235548117115
 31
0.0
  0
LINE
  5
300
330
2FE
100
AcDbEntity
  8
1
  6
Continuous
 62
     7
100
AcDbLine
 10
-987.358525394816
 20
358.235548117115
 30
0.0
 11
-959.9095962223769
 21
358.235548117115
 31
0.0
  0
LINE
  5
301
330
2FE
100
AcDbEntity
  8
1
  6
Continuous
 62
     7
100
AcDbLine
 10
-987.358525394816
 20
393.235548117115
 30
0.0
 11
-959.9095962223769
 21
393.235548117115
 31
0.0
  0
SOLID
  5
302
330
2FE
100
AcDbEntity
  8
1
 62
     7
100
AcDbTrace
 10
-960.5146387296147
 20
390.235548117115
 30
0.0
 11
-961.304553715139
 21
390.235548117115
 31
0.0
 12
-960.9095962223769
 22
393.235548117115
 32
0.0
 13
-960.9095962223769
 23
393.235548117115
 33
0.0
  0
SOLID
  5
303
330
2FE
100
AcDbEntity
  8
1
 62
     7
100
AcDbTrace
 10
-961.304553715139
 20
361.235548117115
 30
0.0
 11
-960.5146387296147
 21
361.235548117115
 31
0.0
 12
-960.9095962223769
 22
358.235548117115
 32
0.0
 13
-960.9095962223769
 23
358.235548117115
 33
0.0
  0
MTEXT
  5
304
330
2FE
100
AcDbEntity
  8
1
 62
     7
100
AcDbMText
 10
-962.9095962223769
 20
373.485548117115
 30
0.0
 40
3.0
 41
0.0
 71
     7
 72
     1
  1
35
  7
CONVERTER_14
 11
0.0
 21
1.0
 31
0.0
 73
     1
 44
0.60024009603842
  0
ENDBLK
  5
306
330
2FE
100
AcDbEntity
  8
0
100
AcDbBlockEnd
  0
BLOCK
  5
310
330
309
100
AcDbEntity
  8
0
100
AcDbBlockBegin
  2
*D8
 70
     1
 10
0.0
 20
0.0
 30
0.0
  3
*D8
  1
*D8
  0
LINE
  5
30A
330
309
100
AcDbEntity
  8
1
  6
Continuous
 62
     7
100
AcDbLine
 10
-960.9095962223769
 20
291.95131794803
 30
0.0
 11
-960.9095962223769
 21
264.85131794803
 31
0.0
  0
LINE
  5
30B
330
309
100
AcDbEntity
  8
1
  6
Continuous
 62
     7
100
AcDbLine
 10
-973.6464565015624
 20
264.85131794803
 30
0.0
 11
-959.9095962223769
 21
264.85131794803
 31
0.0
  0
LINE
  5
30C
330
309
100
AcDbEntity
  8
1
  6
Continuous
 62
     7
100
AcDbLine
 10
-987.4095962223769
 20
291.95131794803
 30
0.0
 11
-959.9095962223769
 21
291.95131794803
 31
0.0
  0
SOLID
  5
30D
330
309
100
AcDbEntity
  8
1
 62
     7
100
AcDbTrace
 10
-960.5146387296147
 20
288.95131794803
 30
0.0
 11
-961.304553715139
 21
288.95131794803
 31
0.0
 12
-960.9095962223769
 22
291.95131794803
 32
0.0
 13
-960.9095962223769
 23
291.95131794803
 33
0.0
  0
SOLID
  5
30E
330
309
100
AcDbEntity
  8
1
 62
     7
100
AcDbTrace
 10
-961.304553715139
 20
267.85131794803
 30
0.0
 11
-960.5146387296147
 21
267.85131794803
 31
0.0
 12
-960.9095962223769
 22
264.85131794803
 32
0.0
 13
-960.9095962223769
 23
264.85131794803
 33
0.0
  0
MTEXT
  5
30F
330
309
100
AcDbEntity
  8
1
 62
     7
100
AcDbMText
 10
-963.2095962223768
 20
274.72631794803
 30
0.0
 40
3.0
 41
0.0
 71
     7
 72
     1
  1
27,1
  7
CONVERTER_14
 11
0.0
 21
1.0
 31
0.0
 73
     1
 44
0.60024009603842
  0
ENDBLK
  5
311
330
309
100
AcDbEntity
  8
0
100
AcDbBlockEnd
  0
BLOCK
  5
31B
330
314
100
AcDbEntity
  8
0
100
AcDbBlockBegin
  2
*D9
 70
     1
 10
0.0
 20
0.0
 30
0.0
  3
*D9
  1
*D9
  0
LINE
  5
315
330
314
100
AcDbEntity
  8
1
  6
Continuous
 62
     7
100
AcDbLine
 10
-960.9095962223769
 20
234.95131794803
 30
0.0
 11
-960.9095962223769
 21
260.85131794803
 31
0.0
  0
LINE
  5
316
330
314
100
AcDbEntity
  8
1
  6
Continuous
 62
     7
100
AcDbLine
 10
-974.4258793649684
 20
260.85131794803
 30
0.0
 11
-959.9095962223769
 21
260.85131794803
 31
0.0
  0
LINE
  5
317
330
314
100
AcDbEntity
  8
1
  6
Continuous
 62
     7
100
AcDbLine
 10
-988.1595962223769
 20
234.95131794803
 30
0.0
 11
-959.9095962223769
 21
234.95131794803
 31
0.0
  0
SOLID
  5
318
330
314
100
AcDbEntity
  8
1
 62
     7
100
AcDbTrace
 10
-961.304553715139
 20
237.95131794803
 30
0.0
 11
-960.5146387296147
 21
237.95131794803
 31
0.0
 12
-960.9095962223769
 22
234.95131794803
 32
0.0
 13
-960.9095962223769
 23
234.95131794803
 33
0.0
  0
SOLID
  5
319
330
314
100
AcDbEntity
  8
1
 62
     7
100
AcDbTrace
 10
-960.5146387296147
 20
257.85131794803
 30
0.0
 11
-961.304553715139
 21
257.85131794803
 31
0.0
 12
-960.9095962223769
 22
260.85131794803
 32
0.0
 13
-960.9095962223769
 23
260.85131794803
 33
0.0
  0
MTEXT
  5
31A
330
314
100
AcDbEntity
  8
1
 62
     7
100
AcDbMText
 10
-963.2095962223768
 20
243.77631794803
 30
0.0
 40
3.0
 41
0.0
 71
     7
 72
     1
  1
25,9
  7
CONVERTER_14
 11
0.0
 21
1.0
 31
0.0
 73
     1
 44
0.60024009603842
  0
ENDBLK
  5
31C
330
314
100
AcDbEntity
  8
0
100
AcDbBlockEnd
  0
BLOCK
  5
326
330
31F
100
AcDbEntity
  8
0
100
AcDbBlockBegin
  2
*D10
 70
     1
 10
0.0
 20
0.0
 30
0.0
  3
*D10
  1
*D10
  0
LINE
  5
320
330
31F
100
AcDbEntity
  8
1
  6
Continuous
 62
     7
100
AcDbLine
 10
-917.409596222377
 20
398.7355481171149
 30
0.0
 11
-891.409596222377
 21
398.7355481171149
 31
0.0
  0
LINE
  5
321
330
31F
100
AcDbEntity
  8
1
  6
Continuous
 62
     7
100
AcDbLine
 10
-891.409596222377
 20
389.2355481171148
 30
0.0
 11
-891.409596222377
 21
399.7355481171149
 31
0.0
  0
LINE
  5
322
330
31F
100
AcDbEntity
  8
1
  6
Continuous
 62
     7
100
AcDbLine
 10
-917.409596222377
 20
389.2355481171148
 30
0.0
 11
-917.409596222377
 21
399.7355481171149
 31
0.0
  0
SOLID
  5
323
330
31F
100
AcDbEntity
  8
1
 62
     7
100
AcDbTrace
 10
-914.409596222377
 20
399.130505609877
 30
0.0
 11
-914.409596222377
 21
398.3405906243527
 31
0.0
 12
-917.409596222377
 22
398.7355481171149
 32
0.0
 13
-917.409596222377
 23
398.7355481171149
 33
0.0
  0
SOLID
  5
324
330
31F
100
AcDbEntity
  8
1
 62
     7
100
AcDbTrace
 10
-894.409596222377
 20
398.3405906243527
 30
0.0
 11
-894.409596222377
 21
399.130505609877
 31
0.0
 12
-891.409596222377
 22
398.7355481171149
 32
0.0
 13
-891.409596222377
 23
398.7355481171149
 33
0.0
  0
MTEXT
  5
325
330
31F
100
AcDbEntity
  8
1
 62
     7
100
AcDbMText
 10
-906.659596222377
 20
400.7355481171149
 30
0.0
 40
3.0
 41
0.0
 71
     7
 72
     1
  1
26
  7
CONVERTER_14
 11
0.9999999999970619
 21
2.424068405545306E-6
 31
0.0
 73
     1
 44
0.60024009603842
  0
ENDBLK
  5
327
330
31F
100
AcDbEntity
  8
0
100
AcDbBlockEnd
  0
BLOCK
  5
331
330
32A
100
AcDbEntity
  8
0
100
AcDbBlockBegin
  2
*D11
 70
     1
 10
0.0
 20
0.0
 30
0.0
  3
*D11
  1
*D11
  0
LINE
  5
32B
330
32A
100
AcDbEntity
  8
1
  6
Continuous
 62
     7
100
AcDbLine
 10
-926.409596222377
 20
350.735548117115
 30
0.0
 11
-882.409596222377
 21
350.735548117115
 31
0.0
  0
LINE
  5
32C
330
32A
100
AcDbEntity
  8
1
  6
Continuous
 62
     7
100
AcDbLine
 10
-882.409596222377
 20
371.4205481171151
 30
0.0
 11
-882.409596222377
 21
349.735548117115
 31
0.0
  0
LINE
  5
32D
330
32A
100
AcDbEntity
  8
1
  6
Continuous
 62
     7
100
AcDbLine
 10
-926.409596222377
 20
371.4205481171151
 30
0.0
 11
-926.409596222377
 21
349.735548117115
 31
0.0
  0
SOLID
  5
32E
330
32A
100
AcDbEntity
  8
1
 62
     7
100
AcDbTrace
 10
-923.409596222377
 20
351.1305056098772
 30
0.0
 11
-923.409596222377
 21
350.3405906243528
 31
0.0
 12
-926.409596222377
 22
350.735548117115
 32
0.0
 13
-926.409596222377
 23
350.735548117115
 33
0.0
  0
SOLID
  5
32F
330
32A
100
AcDbEntity
  8
1
 62
     7
100
AcDbTrace
 10
-885.409596222377
 20
350.3405906243528
 30
0.0
 11
-885.409596222377
 21
351.1305056098772
 31
0.0
 12
-882.409596222377
 22
350.735548117115
 32
0.0
 13
-882.409596222377
 23
350.735548117115
 33
0.0
  0
MTEXT
  5
330
330
32A
100
AcDbEntity
  8
1
 62
     7
100
AcDbMText
 10
-906.659596222377
 20
352.735548117115
 30
0.0
 40
3.0
 41
0.0
 71
     7
 72
     1
  1
44
  7
CONVERTER_14
 11
0.9999999999970619
 21
2.424068405545306E-6
 31
0.0
 73
     1
 44
0.60024009603842
  0
ENDBLK
  5
332
330
32A
100
AcDbEntity
  8
0
100
AcDbBlockEnd
  0
BLOCK
  5
33C
330
335
100
AcDbEntity
  8
0
100
AcDbBlockBegin
  2
*D12
 70
     1
 10
0.0
 20
0.0
 30
0.0
  3
*D12
  1
*D12
  0
LINE
  5
336
330
335
100
AcDbEntity
  8
1
  6
Continuous
 62
     7
100
AcDbLine
 10
-936.409596222377
 20
388.735548117115
 30
0.0
 11
-936.409596222377
 21
362.735548117115
 31
0.0
  0
LINE
  5
337
330
335
100
AcDbEntity
  8
1
  6
Continuous
 62
     7
100
AcDbLine
 10
-917.9095962223771
 20
362.735548117115
 30
0.0
 11
-937.409596222377
 21
362.735548117115
 31
0.0
  0
LINE
  5
338
330
335
100
AcDbEntity
  8
1
  6
Continuous
 62
     7
100
AcDbLine
 10
-917.9095962223771
 20
388.735548117115
 30
0.0
 11
-937.409596222377
 21
388.735548117115
 31
0.0
  0
SOLID
  5
339
330
335
100
AcDbEntity
  8
1
 62
     7
100
AcDbTrace
 10
-936.0146387296148
 20
385.735548117115
 30
0.0
 11
-936.8045537151391
 21
385.735548117115
 31
0.0
 12
-936.409596222377
 22
388.735548117115
 32
0.0
 13
-936.409596222377
 23
388.735548117115
 33
0.0
  0
SOLID
  5
33A
330
335
100
AcDbEntity
  8
1
 62
     7
100
AcDbTrace
 10
-936.8045537151391
 20
365.735548117115
 30
0.0
 11
-936.0146387296148
 21
365.735548117115
 31
0.0
 12
-936.409596222377
 22
362.735548117115
 32
0.0
 13
-936.409596222377
 23
362.735548117115
 33
0.0
  0
MTEXT
  5
33B
330
335
100
AcDbEntity
  8
1
 62
     7
100
AcDbMText
 10
-938.409596222377
 20
373.485548117115
 30
0.0
 40
3.0
 41
0.0
 71
     7
 72
     1
  1
26
  7
CONVERTER_14
 11
0.0
 21
1.0
 31
0.0
 73
     1
 44
0.60024009603842
  0
ENDBLK
  5
33D
330
335
100
AcDbEntity
  8
0
100
AcDbBlockEnd
  0
BLOCK
  5
347
330
340
100
AcDbEntity
  8
0
100
AcDbBlockBegin
  2
*D13
 70
     1
 10
0.0
 20
0.0
 30
0.0
  3
*D13
  1
*D13
  0
LINE
  5
341
330
340
100
AcDbEntity
  8
1
  6
Continuous
 62
     7
100
AcDbLine
 10
-1016.409596222377
 20
320.1077046658806
 30
0.0
 11
-983.4095962223768
 21
320.1077046658806
 31
0.0
  0
LINE
  5
342
330
340
100
AcDbEntity
  8
1
  6
Continuous
 62
     7
100
AcDbLine
 10
-983.4095962223768
 20
306.7013179480196
 30
0.0
 11
-983.4095962223768
 21
321.1077046658806
 31
0.0
  0
LINE
  5
343
330
340
100
AcDbEntity
  8
1
  6
Continuous
 62
     7
100
AcDbLine
 10
-1016.409596222377
 20
306.7013179480196
 30
0.0
 11
-1016.409596222377
 21
321.1077046658806
 31
0.0
  0
SOLID
  5
344
330
340
100
AcDbEntity
  8
1
 62
     7
100
AcDbTrace
 10
-1013.409596222377
 20
320.5026621586427
 30
0.0
 11
-1013.409596222377
 21
319.7127471731184
 31
0.0
 12
-1016.409596222377
 22
320.1077046658806
 32
0.0
 13
-1016.409596222377
 23
320.1077046658806
 33
0.0
  0
SOLID
  5
345
330
340
100
AcDbEntity
  8
1
 62
     7
100
AcDbTrace
 10
-986.4095962223768
 20
319.7127471731184
 30
0.0
 11
-986.4095962223768
 21
320.5026621586427
 31
0.0
 12
-983.4095962223768
 22
320.1077046658806
 32
0.0
 13
-983.4095962223768
 23
320.1077046658806
 33
0.0
  0
MTEXT
  5
346
330
340
100
AcDbEntity
  8
1
 62
     7
100
AcDbMText
 10
-1002.159596222377
 20
322.1077046658806
 30
0.0
 40
3.0
 41
0.0
 71
     7
 72
     1
  1
33
  7
CONVERTER_14
 11
0.9999999999970619
 21
2.424068405545306E-6
 31
0.0
 73
     1
 44
0.60024009603842
  0
ENDBLK
  5
348
330
340
100
AcDbEntity
  8
0
100
AcDbBlockEnd
  0
BLOCK
  5
352
330
34B
100
AcDbEntity
  8
0
100
AcDbBlockBegin
  2
*D14
 70
     1
 10
0.0
 20
0.0
 30
0.0
  3
*D14
  1
*D14
  0
LINE
  5
34C
330
34B
100
AcDbEntity
  8
1
  6
Continuous
 62
     7
100
AcDbLine
 10
-1021.909596222377
 20
210.95131794803
 30
0.0
 11
-977.909596222377
 21
210.95131794803
 31
0.0
  0
LINE
  5
34D
330
34B
100
AcDbEntity
  8
1
  6
Continuous
 62
     7
100
AcDbLine
 10
-977.909596222377
 20
256.9013179480301
 30
0.0
 11
-977.909596222377
 21
209.95131794803
 31
0.0
  0
LINE
  5
34E
330
34B
100
AcDbEntity
  8
1
  6
Continuous
 62
     7
100
AcDbLine
 10
-1021.909596222377
 20
256.9013179480301
 30
0.0
 11
-1021.909596222377
 21
209.95131794803
 31
0.0
  0
SOLID
  5
34F
330
34B
100
AcDbEntity
  8
1
 62
     7
100
AcDbTrace
 10
-1018.909596222377
 20
211.3462754407922
 30
0.0
 11
-1018.909596222377
 21
210.5563604552678
 31
0.0
 12
-1021.909596222377
 22
210.95131794803
 32
0.0
 13
-1021.909596222377
 23
210.95131794803
 33
0.0
  0
SOLID
  5
350
330
34B
100
AcDbEntity
  8
1
 62
     7
100
AcDbTrace
 10
-980.909596222377
 20
210.5563604552678
 30
0.0
 11
-980.909596222377
 21
211.3462754407922
 31
0.0
 12
-977.909596222377
 22
210.95131794803
 32
0.0
 13
-977.909596222377
 23
210.95131794803
 33
0.0
  0
MTEXT
  5
351
330
34B
100
AcDbEntity
  8
1
 62
     7
100
AcDbMText
 10
-1002.159596222377
 20
212.95131794803
 30
0.0
 40
3.0
 41
0.0
 71
     7
 72
     1
  1
44
  7
CONVERTER_14
 11
0.9999999999970619
 21
2.424068405545306E-6
 31
0.0
 73
     1
 44
0.60024009603842
  0
ENDBLK
  5
353
330
34B
100
AcDbEntity
  8
0
100
AcDbBlockEnd
  0
BLOCK
  5
35C
330
356
100
AcDbEntity
  8
0
100
AcDbBlockBegin
  2
*D15
 70
     1
 10
0.0
 20
0.0
 30
0.0
  3
*D15
  1
*D15
  0
LINE
  5
357
330
356
100
AcDbEntity
  8
1
  6
Continuous
 62
     7
100
AcDbLine
 10
-877.736568280621
 20
386.183576058871
 30
0.0
 11
-863.8865682806211
 21
386.183576058871
 31
0.0
  0
LINE
  5
358
330
356
100
AcDbEntity
  8
1
  6
Continuous
 62
     7
100
AcDbLine
 10
-884.9205595426587
 20
370.1214976004026
 30
0.0
 11
-877.736568280621
 21
386.183576058871
 31
0.0
  0
SOLID
  5
359
330
356
100
AcDbEntity
  8
1
 62
     7
100
AcDbTrace
 10
-880.8716014056309
 20
380.1415739187588
 30
0.0
 11
-880.1505245547947
 21
379.8190621212315
 31
0.0
 12
-881.7359231364478
 22
377.2417567923305
 32
0.0
 13
-881.7359231364478
 23
377.2417567923305
 33
0.0
  0
SOLID
  5
35A
330
356
100
AcDbEntity
  8
1
 62
     7
100
AcDbTrace
 10
-883.947591039123
 20
371.3295223154713
 30
0.0
 11
-884.6686678899592
 21
371.6520341129985
 31
0.0
 12
-883.0832693083062
 22
374.2293394418996
 32
0.0
 13
-883.0832693083062
 23
374.2293394418996
 33
0.0
  0
MTEXT
  5
35B
330
356
100
AcDbEntity
  8
1
 62
     7
100
AcDbMText
 10
-871.8965682806138
 20
388.4835700956627
 30
0.0
 40
3.0
 41
0.0
 71
     7
 72
     1
  1
\C7;\U+00f8\C7;3,3
  7
CONVERTER_14
 11
0.9999999999970619
 21
2.424068405545306E-6
 31
0.0
 73
     1
 44
0.60024009603842
  0
ENDBLK
  5
35D
330
356
100
AcDbEntity
  8
0
100
AcDbBlockEnd
  0
ENDSEC
  0
SECTION
  2
ENTITIES
  0
INSERT
  5
75
330
1F
100
AcDbEntity
  8
1
100
AcDbBlockReference
  2
_formato_A4
 10
-849.350803461536
 20
151.563962226144
 30
0.0
  0
LINE
  5
D2
330
1F
100
AcDbEntity
  8
0
  6
Continuous
 62
     7
100
AcDbLine
 10
-1015.009596222377
 20
301.5660145856118
 30
0.0
 11
-1015.009596222377
 21
302.7720916212128
 31
0.0
  0
LINE
  5
D3
330
1F
100
AcDbEntity
  8
0
  6
Continuous
 62
     7
100
AcDbLine
 10
-1015.009596222377
 20
301.5660145856118
 30
0.0
 11
-1015.009596222377
 21
299.8418374869479
 31
0.0
  0
LINE
  5
D4
330
1F
100
AcDbEntity
  8
0
  6
Continuous
 62
     7
100
AcDbLine
 10
-1014.609596222377
 20
284.301317948029
 30
0.0
 11
-1014.709596222377
 21
284.301317948029
 31
0.0
  0
LINE
  5
D5
330
1F
100
AcDbEntity
  8
0
  6
Continuous
 62
     7
100
AcDbLine
 10
-892.4095962223763
 20
286.5772289452064
 30
0.0
 11
-892.409596222377
 21
265.85131794803
 31
0.0
  0
LINE
  5
D6
330
1F
100
AcDbEntity
  8
0
  6
Continuous
 62
     7
100
AcDbLine
 10
-887.209596222416
 20
299.8418374869535
 30
0.0
 11
-888.4095962224158
 21
299.84183748695
 31
0.0
  0
LINE
  5
D7
330
1F
100
AcDbEntity
  8
1
  6
DASHED
 62
     7
100
AcDbLine
 10
-900.9454946072364
 20
291.95131794803
 30
0.0
 11
-892.409596222377
 21
291.95131794803
 31
0.0
  0
LINE
  5
D8
330
1F
100
AcDbEntity
  8
0
  6
Continuous
 62
     7
100
AcDbLine
 10
-887.2665165734201
 20
302.3605643886235
 30
0.0
 11
-883.384674695344
 21
305.617816476826
 31
0.0
  0
LINE
  5
D9
330
1F
100
AcDbEntity
  8
0
  6
Continuous
 62
     7
100
AcDbLine
 10
-887.209596222416
 20
299.8418374869535
 30
0.0
 11
-887.2095962223995
 21
294.2080562730206
 31
0.0
  0
LINE
  5
DA
330
1F
100
AcDbEntity
  8
0
  6
Continuous
 62
     7
100
AcDbLine
 10
-887.209596222416
 20
299.8418374869535
 30
0.0
 11
-887.209596222416
 21
299.9092221706436
 31
0.0
  0
LINE
  5
DB
330
1F
100
AcDbEntity
  8
0
  6
Continuous
 62
     7
100
AcDbLine
 10
-888.8635512423137
 20
299.8418374869486
 30
0.0
 11
-888.4095962224158
 21
299.84183748695
 31
0.0
  0
LINE
  5
DC
330
1F
100
AcDbEntity
  8
0
  6
Continuous
 62
     7
100
AcDbLine
 10
-890.5547445531248
 20
289.4935232635589
 30
0.0
 11
-891.1616845716384
 21
288.7702003160019
 31
0.0
  0
LINE
  5
DD
330
1F
100
AcDbEntity
  8
0
  6
Continuous
 62
     7
100
AcDbLine
 10
-889.9095962223877
 20
290.2623811044758
 30
0.0
 11
-890.5547445531248
 21
289.4935232635589
 31
0.0
  0
LINE
  5
DE
330
1F
100
AcDbEntity
  8
0
  6
Continuous
 62
     7
100
AcDbLine
 10
-887.6775073361576
 20
292.9224810536463
 30
0.0
 11
-889.9095962223877
 21
290.2623811044758
 31
0.0
  0
LINE
  5
DF
330
1F
100
AcDbEntity
  8
0
  6
Continuous
 62
     7
100
AcDbLine
 10
-886.4951714417934
 20
301.4413110568827
 30
0.0
 11
-884.6549477855744
 21
302.9854420481099
 31
0.0
  0
LINE
  5
E0
330
1F
100
AcDbEntity
  8
0
  6
Continuous
 62
     7
100
AcDbLine
 10
-882.6133295637175
 20
304.6985631450862
 30
0.0
 11
-884.6549477855744
 21
302.9854420481099
 31
0.0
  0
LINE
  5
E1
330
1F
100
AcDbEntity
  8
0
  6
Continuous
 62
     7
100
AcDbLine
 10
-882.6133295637175
 20
304.6985631450862
 30
0.0
 11
-883.384674695344
 21
305.617816476826
 31
0.0
  0
LINE
  5
E2
330
1F
100
AcDbEntity
  8
0
  6
Continuous
 62
     7
100
AcDbLine
 10
-903.0598543408161
 20
305.073901627718
 30
0.0
 11
-902.1205228633966
 21
303.732397250579
 31
0.0
  0
LINE
  5
E3
330
1F
100
AcDbEntity
  8
0
  6
Continuous
 62
     7
100
AcDbLine
 10
-902.1205228633966
 20
303.732397250579
 30
0.0
 11
-900.7712921338436
 21
301.8054960735446
 31
0.0
  0
LINE
  5
E4
330
1F
100
AcDbEntity
  8
0
  6
Continuous
 62
     7
100
AcDbLine
 10
-901.4095962224068
 20
296.7889407785977
 30
0.0
 11
-902.9095962224068
 21
296.7889407785933
 31
0.0
  0
LINE
  5
E5
330
1F
100
AcDbEntity
  8
0
  6
Continuous
 62
     7
100
AcDbLine
 10
-902.9095962224133
 20
298.9513179480334
 30
0.0
 11
-902.9095962224068
 21
296.7889407785933
 31
0.0
  0
LINE
  5
E6
330
1F
100
AcDbEntity
  8
0
  6
Continuous
 62
     7
100
AcDbLine
 10
-907.5733343428684
 20
300.4513179480196
 30
0.0
 11
-904.4095962224175
 21
300.451317948029
 31
0.0
  0
LINE
  5
E7
330
1F
100
AcDbEntity
  8
0
  6
Continuous
 62
     7
100
AcDbLine
 10
-902.2263989954776
 20
287.6693696170733
 30
0.0
 11
-900.4158474944321
 21
286.4016078077328
 31
0.0
  0
LINE
  5
E8
330
1F
100
AcDbEntity
  8
0
  6
Continuous
 62
     7
100
AcDbLine
 10
-901.9931826943914
 20
284.1489396859331
 30
0.0
 11
-902.474017094545
 21
284.1592591704439
 31
0.0
  0
LINE
  5
E9
330
1F
100
AcDbEntity
  8
0
  6
Continuous
 62
     7
100
AcDbLine
 10
-902.2595962223769
 20
284.3590703527392
 30
0.0
 11
-902.2595962223769
 21
286.45131794803
 31
0.0
  0
LINE
  5
EA
330
1F
100
AcDbEntity
  8
0
  6
Continuous
 62
     7
100
AcDbLine
 10
-900.4158474944321
 20
286.4016078077328
 30
0.0
 11
-901.9931826943914
 21
284.1489396859331
 31
0.0
  0
LINE
  5
EB
330
1F
100
AcDbEntity
  8
0
  6
Continuous
 62
     7
100
AcDbLine
 10
-904.409596222377
 20
283.45131794803
 30
0.0
 11
-904.409596222377
 21
284.30131794803
 31
0.0
  0
LINE
  5
EC
330
1F
100
AcDbEntity
  8
0
  6
Continuous
 62
     7
100
AcDbLine
 10
-903.1190492405916
 20
288.2944100476828
 30
0.0
 11
-902.2263989954776
 21
287.6693696170733
 31
0.0
  0
LINE
  5
ED
330
1F
100
AcDbEntity
  8
0
  6
Continuous
 62
     7
100
AcDbLine
 10
-904.4095962223763
 20
284.2007998314758
 30
0.0
 11
-904.4578737471899
 21
284.2018359453009
 31
0.0
  0
LINE
  5
EE
330
1F
100
AcDbEntity
  8
0
  6
Continuous
 62
     7
100
AcDbLine
 10
-900.4095962224181
 20
300.6583432008436
 30
0.0
 11
-900.4095962224098
 21
297.7889407786018
 31
0.0
  0
LINE
  5
EF
330
1F
100
AcDbEntity
  8
0
  6
Continuous
 62
     7
100
AcDbLine
 10
-891.5901112670527
 20
288.0935232635558
 30
0.0
 11
-891.5899559658341
 21
288.0935232635558
 31
0.0
  0
LINE
  5
F0
330
1F
100
AcDbEntity
  8
0
  6
Continuous
 62
     7
100
AcDbLine
 10
-1015.009596222377
 20
309.9513179480196
 30
0.0
 11
-1015.009596222377
 21
310.1077046658806
 31
0.0
  0
LINE
  5
F1
330
1F
100
AcDbEntity
  8
0
  6
Continuous
 62
     7
100
AcDbLine
 10
-1016.209596222377
 20
309.1711593629243
 30
0.0
 11
-1016.209596222377
 21
310.1077046658806
 31
0.0
  0
LINE
  5
F2
330
1F
100
AcDbEntity
  8
0
  6
Continuous
 62
     7
100
AcDbLine
 10
-1015.009596222377
 20
309.1711593629243
 30
0.0
 11
-1015.009596222377
 21
309.9513179480196
 31
0.0
  0
LINE
  5
F3
330
1F
100
AcDbEntity
  8
0
  6
Continuous
 62
     7
100
AcDbLine
 10
-1013.209596222377
 20
309.9513179480196
 30
0.0
 11
-1015.009596222377
 21
309.9513179480196
 31
0.0
  0
LINE
  5
F4
330
1F
100
AcDbEntity
  8
0
  6
Continuous
 62
     7
100
AcDbLine
 10
-1016.209596222377
 20
306.2013179480196
 30
0.0
 11
-1016.209596222377
 21
309.1711593629243
 31
0.0
  0
LINE
  5
F5
330
1F
100
AcDbEntity
  8
0
  6
Continuous
 62
     7
100
AcDbLine
 10
-1013.059596222377
 20
306.8513179480196
 30
0.0
 11
-1013.059596222377
 21
307.9513179480196
 31
0.0
  0
LINE
  5
F6
330
1F
100
AcDbEntity
  8
0
  6
Continuous
 62
     7
100
AcDbLine
 10
-1012.059596222377
 20
307.9513179480196
 30
0.0
 11
-1013.059596222377
 21
307.9513179480196
 31
0.0
  0
LINE
  5
F7
330
1F
100
AcDbEntity
  8
0
  6
Continuous
 62
     7
100
AcDbLine
 10
-1008.428057158295
 20
299.8418374869535
 30
0.0
 11
-1008.416175420474
 21
299.9092221706436
 31
0.0
  0
LINE
  5
F8
330
1F
100
AcDbEntity
  8
0
  6
Continuous
 62
     7
100
AcDbLine
 10
-1008.416175420474
 20
299.9092221706436
 30
0.0
 11
-1008.146026812986
 21
301.4413110568827
 31
0.0
  0
LINE
  5
F9
330
1F
100
AcDbEntity
  8
0
  6
Continuous
 62
     7
100
AcDbLine
 10
-1015.009596222377
 20
302.7720916212128
 30
0.0
 11
-1015.009596222377
 21
309.1711593629243
 31
0.0
  0
LINE
  5
FA
330
1F
100
AcDbEntity
  8
0
  6
Continuous
 62
     7
100
AcDbLine
 10
-1012.059596222377
 20
304.45131794803
 30
0.0
 11
-1012.059596222377
 21
307.9513179480196
 31
0.0
  0
LINE
  5
FB
330
1F
100
AcDbEntity
  8
0
  6
Continuous
 62
     7
100
AcDbLine
 10
-1013.209596222377
 20
304.4513179480358
 30
0.0
 11
-1013.209596222377
 21
309.9513179480196
 31
0.0
  0
LINE
  5
FC
330
1F
100
AcDbEntity
  8
0
  6
Continuous
 62
     7
100
AcDbLine
 10
-1015.009596222377
 20
310.1077046658806
 30
0.0
 11
-1016.209596222377
 21
310.1077046658806
 31
0.0
  0
LINE
  5
FD
330
1F
100
AcDbEntity
  8
0
  6
Continuous
 62
     7
100
AcDbLine
 10
-1006.999141887811
 20
304.9463836068546
 30
0.0
 11
-1006.815193647772
 21
304.9463836068546
 31
0.0
  0
LINE
  5
FE
330
1F
100
AcDbEntity
  8
0
  6
Continuous
 62
     7
100
AcDbLine
 10
-1007.873754857486
 20
302.9854420481099
 30
0.0
 11
-1007.720924905897
 21
303.8521837740472
 31
0.0
  0
LINE
  5
FF
330
1F
100
AcDbEntity
  8
0
  6
Continuous
 62
     7
100
AcDbLine
 10
-1004.703338782078
 20
305.617816476826
 30
0.0
 11
-995.1158536626754
 21
305.617816476826
 31
0.0
  0
LINE
  5
100
330
1F
100
AcDbEntity
  8
0
  6
Continuous
 62
     7
100
AcDbLine
 10
-1008.146026812986
 20
301.4413110568827
 30
0.0
 11
-1007.873754857486
 21
302.9854420481099
 31
0.0
  0
LINE
  5
101
330
1F
100
AcDbEntity
  8
0
  6
Continuous
 62
     7
100
AcDbLine
 10
-1016.409596222377
 20
302.7013179480196
 30
0.0
 11
-1016.409596222377
 21
304.4513179480248
 31
0.0
  0
LINE
  5
102
330
1F
100
AcDbEntity
  8
0
  6
Continuous
 62
     7
100
AcDbLine
 10
-1016.209596222377
 20
302.7013179480196
 30
0.0
 11
-1016.409596222377
 21
302.7013179480196
 31
0.0
  0
LINE
  5
103
330
1F
100
AcDbEntity
  8
0
  6
Continuous
 62
     7
100
AcDbLine
 10
-1016.409596222377
 20
304.4513179480248
 30
0.0
 11
-1016.409596222377
 21
306.2013179480196
 31
0.0
  0
LINE
  5
104
330
1F
100
AcDbEntity
  8
0
  6
Continuous
 62
     7
100
AcDbLine
 10
-1016.209596222377
 20
306.2013179480196
 30
0.0
 11
-1016.409596222377
 21
306.2013179480196
 31
0.0
  0
LINE
  5
105
330
1F
100
AcDbEntity
  8
0
  6
Continuous
 62
     7
100
AcDbLine
 10
-1013.059596222377
 20
304.45131794803
 30
0.0
 11
-1013.059596222377
 21
306.8513179480196
 31
0.0
  0
LINE
  5
106
330
1F
100
AcDbEntity
  8
0
  6
Continuous
 62
     7
100
AcDbLine
 10
-1016.209596222377
 20
301.5660145856118
 30
0.0
 11
-1016.209596222377
 21
300.0301138341647
 31
0.0
  0
LINE
  5
107
330
1F
100
AcDbEntity
  8
0
  6
Continuous
 62
     7
100
AcDbLine
 10
-1016.209596222377
 20
302.7013179480196
 30
0.0
 11
-1016.209596222377
 21
302.7720916212128
 31
0.0
  0
LINE
  5
108
330
1F
100
AcDbEntity
  8
0
  6
Continuous
 62
     7
100
AcDbLine
 10
-1016.209596222377
 20
306.2013179480196
 30
0.0
 11
-1016.209596222377
 21
302.7720916212128
 31
0.0
  0
LINE
  5
109
330
1F
100
AcDbEntity
  8
0
  6
Continuous
 62
     7
100
AcDbLine
 10
-1013.059596222377
 20
300.9513179480196
 30
0.0
 11
-1013.059596222377
 21
302.0513179480196
 31
0.0
  0
LINE
  5
10A
330
1F
100
AcDbEntity
  8
0
  6
Continuous
 62
     7
100
AcDbLine
 10
-1013.209596222377
 20
299.8418374869535
 30
0.0
 11
-1013.209596222377
 21
304.4513179480358
 31
0.0
  0
LINE
  5
10B
330
1F
100
AcDbEntity
  8
0
  6
Continuous
 62
     7
100
AcDbLine
 10
-1013.059596222377
 20
302.0513179480196
 30
0.0
 11
-1013.059596222377
 21
304.45131794803
 31
0.0
  0
LINE
  5
10C
330
1F
100
AcDbEntity
  8
0
  6
Continuous
 62
     7
100
AcDbLine
 10
-1016.209596222377
 20
300.0301138341647
 30
0.0
 11
-1016.209596222377
 21
290.2623811044758
 31
0.0
  0
LINE
  5
10D
330
1F
100
AcDbEntity
  8
0
  6
Continuous
 62
     7
100
AcDbLine
 10
-1016.209596222377
 20
301.5660145856118
 30
0.0
 11
-1016.209596222377
 21
302.7013179480196
 31
0.0
  0
LINE
  5
10E
330
1F
100
AcDbEntity
  8
0
  6
Continuous
 62
     7
100
AcDbLine
 10
-1013.059596222377
 20
302.0513179480196
 30
0.0
 11
-1013.209596222377
 21
302.0513179480196
 31
0.0
  0
LINE
  5
10F
330
1F
100
AcDbEntity
  8
0
  6
Continuous
 62
     7
100
AcDbLine
 10
-1015.009596222377
 20
299.8418374869479
 30
0.0
 11
-1015.998730589903
 21
299.8418374869479
 31
0.0
  0
LINE
  5
110
330
1F
100
AcDbEntity
  8
0
  6
Continuous
 62
     7
100
AcDbLine
 10
-1013.509596222377
 20
299.8418374869535
 30
0.0
 11
-1015.009596222377
 21
299.8418374869479
 31
0.0
  0
LINE
  5
111
330
1F
100
AcDbEntity
  8
0
  6
Continuous
 62
     7
100
AcDbLine
 10
-1012.059596222377
 20
300.9513179480196
 30
0.0
 11
-1013.059596222377
 21
300.9513179480196
 31
0.0
  0
LINE
  5
112
330
1F
100
AcDbEntity
  8
0
  6
Continuous
 62
     7
100
AcDbLine
 10
-1013.059596222377
 20
306.8513179480196
 30
0.0
 11
-1013.209596222377
 21
306.8513179480196
 31
0.0
  0
LINE
  5
113
330
1F
100
AcDbEntity
  8
0
  6
Continuous
 62
     7
100
AcDbLine
 10
-1016.209596222377
 20
290.2623811044758
 30
0.0
 11
-1016.209596222377
 21
289.4935232635589
 31
0.0
  0
LINE
  5
114
330
1F
100
AcDbEntity
  8
0
  6
Continuous
 62
     7
100
AcDbLine
 10
-1013.409596222377
 20
288.951317948029
 30
0.0
 11
-1013.409596222377
 21
292.9513179480295
 31
0.0
  0
LINE
  5
115
330
1F
100
AcDbEntity
  8
0
  6
Continuous
 62
     7
100
AcDbLine
 10
-1013.409596222377
 20
292.9513179480295
 30
0.0
 11
-1014.108289767736
 21
292.9513179480295
 31
0.0
  0
LINE
  5
116
330
1F
100
AcDbEntity
  8
0
  6
Continuous
 62
     7
100
AcDbLine
 10
-1012.617770228799
 20
294.4418374869535
 30
0.0
 11
-1012.851551442732
 21
294.2080562730206
 31
0.0
  0
LINE
  5
117
330
1F
100
AcDbEntity
  8
0
  6
Continuous
 62
     7
100
AcDbLine
 10
-1014.137126662105
 20
292.9224810536463
 30
0.0
 11
-1012.851551442732
 21
294.2080562730206
 31
0.0
  0
LINE
  5
118
330
1F
100
AcDbEntity
  8
0
  6
Continuous
 62
     7
100
AcDbLine
 10
-1015.009596222377
 20
292.050011493372
 30
0.0
 11
-1015.009596222377
 21
289.4935232635589
 31
0.0
  0
LINE
  5
119
330
1F
100
AcDbEntity
  8
0
  6
Continuous
 62
     7
100
AcDbLine
 10
-1014.609596222377
 20
289.2791639096135
 30
0.0
 11
-1014.609596222377
 21
292.450011493372
 31
0.0
  0
LINE
  5
11A
330
1F
100
AcDbEntity
  8
0
  6
Continuous
 62
     7
100
AcDbLine
 10
-1013.509596222377
 20
299.8418374869535
 30
0.0
 11
-1008.428057158295
 21
299.8418374869535
 31
0.0
  0
LINE
  5
11B
330
1F
100
AcDbEntity
  8
0
  6
Continuous
 62
     7
100
AcDbLine
 10
-1015.909596222377
 20
283.451317948029
 30
0.0
 11
-1015.909596222377
 21
284.3590703527382
 31
0.0
  0
LINE
  5
11C
330
1F
100
AcDbEntity
  8
0
  6
Continuous
 62
     7
100
AcDbLine
 10
-1015.909596222377
 20
286.451317948029
 30
0.0
 11
-1015.909596222377
 21
284.3590703527382
 31
0.0
  0
LINE
  5
11D
330
1F
100
AcDbEntity
  8
0
  6
Continuous
 62
     7
100
AcDbLine
 10
-1015.909596222377
 20
286.451317948029
 30
0.0
 11
-1015.909596222377
 21
288.601317948029
 31
0.0
  0
LINE
  5
11E
330
1F
100
AcDbEntity
  8
0
  6
Continuous
 62
     7
100
AcDbLine
 10
-1015.888470485326
 20
288.601317948029
 30
0.0
 11
-1015.909596222377
 21
288.601317948029
 31
0.0
  0
LINE
  5
11F
330
1F
100
AcDbEntity
  8
0
  6
Continuous
 62
     7
100
AcDbLine
 10
-1014.709596222377
 20
283.451317948029
 30
0.0
 11
-1015.909596222377
 21
283.451317948029
 31
0.0
  0
LINE
  5
120
330
1F
100
AcDbEntity
  8
0
  6
Continuous
 62
     7
100
AcDbLine
 10
-1013.409596222377
 20
288.3188867187153
 30
0.0
 11
-1013.409596222377
 21
287.8935232635555
 31
0.0
  0
LINE
  5
121
330
1F
100
AcDbEntity
  8
0
  6
Continuous
 62
     7
100
AcDbLine
 10
-1013.409596222377
 20
280.6516247068052
 30
0.0
 11
-1013.409596222377
 21
283.951317948029
 31
0.0
  0
LINE
  5
122
330
1F
100
AcDbEntity
  8
0
  6
Continuous
 62
     7
100
AcDbLine
 10
-1013.409596222377
 20
283.951317948029
 30
0.0
 11
-1013.409596222377
 21
287.8935232635555
 31
0.0
  0
LINE
  5
123
330
1F
100
AcDbEntity
  8
0
  6
Continuous
 62
     7
100
AcDbLine
 10
-1014.609596222377
 20
279.671492508121
 30
0.0
 11
-1014.609596222377
 21
280.6516247068052
 31
0.0
  0
LINE
  5
124
330
1F
100
AcDbEntity
  8
0
  6
Continuous
 62
     7
100
AcDbLine
 10
-1014.709596222377
 20
283.451317948029
 30
0.0
 11
-1014.709596222377
 21
284.301317948029
 31
0.0
  0
LINE
  5
125
330
1F
100
AcDbEntity
  8
0
  6
Continuous
 62
     7
100
AcDbLine
 10
-1014.609596222377
 20
280.6516247068052
 30
0.0
 11
-1014.609596222377
 21
287.8935232635555
 31
0.0
  0
LINE
  5
126
330
1F
100
AcDbEntity
  8
0
  6
Continuous
 62
     7
100
AcDbLine
 10
-1013.409596222377
 20
279.671492508121
 30
0.0
 11
-1013.409596222377
 21
280.6516247068052
 31
0.0
  0
LINE
  5
127
330
1F
100
AcDbEntity
  8
0
  6
Continuous
 62
     7
100
AcDbLine
 10
-1013.409596222377
 20
279.671492508121
 30
0.0
 11
-1014.609596222377
 21
279.671492508121
 31
0.0
  0
LINE
  5
128
330
1F
100
AcDbEntity
  8
0
  6
Continuous
 62
     7
100
AcDbLine
 10
-1013.409596222377
 20
288.3188867187153
 30
0.0
 11
-1013.409596222377
 21
288.951317948029
 31
0.0
  0
LINE
  5
129
330
1F
100
AcDbEntity
  8
0
  6
Continuous
 62
     7
100
AcDbLine
 10
-1013.409596222377
 20
288.3188867187153
 30
0.0
 11
-1013.475779919107
 21
288.3188867187153
 31
0.0
  0
LINE
  5
12A
330
1F
100
AcDbEntity
  8
0
  6
Continuous
 62
     7
100
AcDbLine
 10
-1012.509596222377
 20
288.951317948029
 30
0.0
 11
-1013.409596222377
 21
288.951317948029
 31
0.0
  0
LINE
  5
12B
330
1F
100
AcDbEntity
  8
0
  6
Continuous
 62
     7
100
AcDbLine
 10
-1012.509596222377
 20
283.951317948029
 30
0.0
 11
-1013.409596222377
 21
283.951317948029
 31
0.0
  0
LINE
  5
12C
330
1F
100
AcDbEntity
  8
0
  6
Continuous
 62
     7
100
AcDbLine
 10
-1014.137126662105
 20
292.9224810536463
 30
0.0
 11
-1015.009596222377
 21
292.050011493372
 31
0.0
  0
LINE
  5
12D
330
1F
100
AcDbEntity
  8
0
  6
Continuous
 62
     7
100
AcDbLine
 10
-1007.720924905897
 20
303.8521837740472
 30
0.0
 11
-1007.719435095126
 21
303.8606329107868
 31
0.0
  0
LINE
  5
12E
330
1F
100
AcDbEntity
  8
0
  6
Continuous
 62
     7
100
AcDbLine
 10
-1012.059596222377
 20
300.9513179480196
 30
0.0
 11
-1012.059596222377
 21
304.45131794803
 31
0.0
  0
LINE
  5
12F
330
1F
100
AcDbEntity
  8
0
  6
Continuous
 62
     7
100
AcDbLine
 10
-991.6731656317673
 20
301.4413110568827
 30
0.0
 11
-991.9454375872677
 21
302.9854420481099
 31
0.0
  0
LINE
  5
130
330
1F
100
AcDbEntity
  8
0
  6
Continuous
 62
     7
100
AcDbLine
 10
-991.9454375872677
 20
302.9854420481099
 30
0.0
 11
-992.0982675388566
 21
303.8521837740459
 31
0.0
  0
LINE
  5
131
330
1F
100
AcDbEntity
  8
0
  6
Continuous
 62
     7
100
AcDbLine
 10
-992.0982675388566
 20
303.8521837740459
 30
0.0
 11
-992.0997573496277
 21
303.8606329107868
 31
0.0
  0
LINE
  5
132
330
1F
100
AcDbEntity
  8
0
  6
Continuous
 62
     7
100
AcDbLine
 10
-992.0997573496277
 20
303.8606329107868
 30
0.0
 11
-992.1035832822313
 21
303.8606329107868
 31
0.0
  0
LINE
  5
133
330
1F
100
AcDbEntity
  8
0
  6
Continuous
 62
     7
100
AcDbLine
 10
-1007.715609162522
 20
303.8606329107868
 30
0.0
 11
-1007.719435095126
 21
303.8606329107868
 31
0.0
  0
LINE
  5
134
330
1F
100
AcDbEntity
  8
0
  6
Continuous
 62
     7
100
AcDbLine
 10
-1007.515393981013
 20
304.4035082588205
 30
0.0
 11
-1007.442294009613
 21
304.4035082588205
 31
0.0
  0
LINE
  5
135
330
1F
100
AcDbEntity
  8
0
  6
Continuous
 62
     7
100
AcDbLine
 10
-992.3768984351403
 20
304.4035082588205
 30
0.0
 11
-992.3037984637405
 21
304.4035082588205
 31
0.0
  0
LINE
  5
136
330
1F
100
AcDbEntity
  8
0
  6
Continuous
 62
     7
100
AcDbLine
 10
-993.0039987969815
 20
304.9463836068546
 30
0.0
 11
-992.8200505569426
 21
304.9463836068546
 31
0.0
  0
LINE
  5
137
330
1F
100
AcDbEntity
  8
0
  6
Continuous
 62
     7
100
AcDbLine
 10
-1011.909596222377
 20
289.45131794803
 30
0.0
 11
-1012.009596222377
 21
289.451317948029
 31
0.0
  0
LINE
  5
138
330
1F
100
AcDbEntity
  8
0
  6
Continuous
 62
     7
100
AcDbLine
 10
-1011.909596222377
 20
283.45131794803
 30
0.0
 11
-1012.009596222377
 21
283.451317948029
 31
0.0
  0
LINE
  5
139
330
1F
100
AcDbEntity
  8
0
  6
Continuous
 62
     7
100
AcDbLine
 10
-1012.617770228799
 20
294.4418374869535
 30
0.0
 11
-987.2014222159548
 21
294.4418374869535
 31
0.0
  0
LINE
  5
13A
330
1F
100
AcDbEntity
  8
0
  6
Continuous
 62
     7
100
AcDbLine
 10
-1012.509596222377
 20
283.951317948029
 30
0.0
 11
-1012.009596222377
 21
283.451317948029
 31
0.0
  0
LINE
  5
13B
330
1F
100
AcDbEntity
  8
0
  6
Continuous
 62
     7
100
AcDbLine
 10
-1012.509596222377
 20
288.951317948029
 30
0.0
 11
-1012.009596222377
 21
289.451317948029
 31
0.0
  0
LINE
  5
13C
330
1F
100
AcDbEntity
  8
0
  6
Continuous
 62
     7
100
AcDbLine
 10
-986.3095962223769
 20
299.8418374869535
 30
0.0
 11
-984.8095962223769
 21
299.8418374869479
 31
0.0
  0
LINE
  5
13D
330
1F
100
AcDbEntity
  8
0
  6
Continuous
 62
     7
100
AcDbLine
 10
-984.8095962223769
 20
299.8418374869479
 30
0.0
 11
-983.8204618548717
 21
299.8418374869479
 31
0.0
  0
LINE
  5
13E
330
1F
100
AcDbEntity
  8
0
  6
Continuous
 62
     7
100
AcDbLine
 10
-991.3911352864591
 20
299.8418374869535
 30
0.0
 11
-991.4030170242802
 21
299.9092221706436
 31
0.0
  0
LINE
  5
13F
330
1F
100
AcDbEntity
  8
0
  6
Continuous
 62
     7
100
AcDbLine
 10
-985.209596222377
 20
289.2791639096135
 30
0.0
 11
-985.209596222377
 21
292.450011493372
 31
0.0
  0
LINE
  5
140
330
1F
100
AcDbEntity
  8
0
  6
Continuous
 62
     7
100
AcDbLine
 10
-986.4095962223768
 20
288.951317948029
 30
0.0
 11
-986.4095962223768
 21
292.9513179480295
 31
0.0
  0
LINE
  5
141
330
1F
100
AcDbEntity
  8
0
  6
Continuous
 62
     7
100
AcDbLine
 10
-983.6095962223767
 20
290.2623811044758
 30
0.0
 11
-983.6095962223767
 21
300.0301138341647
 31
0.0
  0
LINE
  5
142
330
1F
100
AcDbEntity
  8
0
  6
Continuous
 62
     7
100
AcDbLine
 10
-985.682065782649
 20
292.9224810536463
 30
0.0
 11
-984.8095962223769
 21
292.050011493372
 31
0.0
  0
LINE
  5
143
330
1F
100
AcDbEntity
  8
0
  6
Continuous
 62
     7
100
AcDbLine
 10
-984.8095962223769
 20
292.050011493372
 30
0.0
 11
-984.8095962223769
 21
289.4935232635589
 31
0.0
  0
LINE
  5
144
330
1F
100
AcDbEntity
  8
0
  6
Continuous
 62
     7
100
AcDbLine
 10
-986.3095962223769
 20
299.8418374869535
 30
0.0
 11
-991.3911352864591
 21
299.8418374869535
 31
0.0
  0
LINE
  5
145
330
1F
100
AcDbEntity
  8
0
  6
Continuous
 62
     7
100
AcDbLine
 10
-986.4095962223768
 20
292.9513179480295
 30
0.0
 11
-985.7109026770172
 21
292.9513179480295
 31
0.0
  0
LINE
  5
146
330
1F
100
AcDbEntity
  8
0
  6
Continuous
 62
     7
100
AcDbLine
 10
-985.682065782649
 20
292.9224810536463
 30
0.0
 11
-986.9676410020219
 21
294.2080562730206
 31
0.0
  0
LINE
  5
147
330
1F
100
AcDbEntity
  8
0
  6
Continuous
 62
     7
100
AcDbLine
 10
-986.4095962223768
 20
283.951317948029
 30
0.0
 11
-986.4095962223768
 21
287.8935232635555
 31
0.0
  0
LINE
  5
148
330
1F
100
AcDbEntity
  8
0
  6
Continuous
 62
     7
100
AcDbLine
 10
-986.4095962223768
 20
280.6516247068052
 30
0.0
 11
-986.4095962223768
 21
283.951317948029
 31
0.0
  0
LINE
  5
149
330
1F
100
AcDbEntity
  8
0
  6
Continuous
 62
     7
100
AcDbLine
 10
-986.4095962223768
 20
288.3188867187153
 30
0.0
 11
-986.4095962223768
 21
288.951317948029
 31
0.0
  0
LINE
  5
14A
330
1F
100
AcDbEntity
  8
0
  6
Continuous
 62
     7
100
AcDbLine
 10
-985.209596222377
 20
280.6516247068052
 30
0.0
 11
-985.209596222377
 21
287.8935232635555
 31
0.0
  0
LINE
  5
14B
330
1F
100
AcDbEntity
  8
0
  6
Continuous
 62
     7
100
AcDbLine
 10
-983.6095962223767
 20
290.2623811044758
 30
0.0
 11
-983.6095962223768
 21
289.4935232635589
 31
0.0
  0
LINE
  5
14C
330
1F
100
AcDbEntity
  8
0
  6
Continuous
 62
     7
100
AcDbLine
 10
-986.4095962223768
 20
288.3188867187153
 30
0.0
 11
-986.3434125256464
 21
288.3188867187153
 31
0.0
  0
LINE
  5
14D
330
1F
100
AcDbEntity
  8
0
  6
Continuous
 62
     7
100
AcDbLine
 10
-991.4030170242802
 20
299.9092221706436
 30
0.0
 11
-991.6731656317673
 21
301.4413110568827
 31
0.0
  0
LINE
  5
14E
330
1F
100
AcDbEntity
  8
0
  6
Continuous
 62
     7
100
AcDbLine
 10
-986.6095962223768
 20
309.9513179480196
 30
0.0
 11
-986.6095962223768
 21
299.8418374869535
 31
0.0
  0
LINE
  5
14F
330
1F
100
AcDbEntity
  8
0
  6
Continuous
 62
     7
100
AcDbLine
 10
-986.6095962223768
 20
309.9513179480196
 30
0.0
 11
-984.8095962223769
 21
309.9513179480196
 31
0.0
  0
LINE
  5
150
330
1F
100
AcDbEntity
  8
0
  6
Continuous
 62
     7
100
AcDbLine
 10
-984.8095962223769
 20
302.7720916212128
 30
0.0
 11
-984.8095962223769
 21
309.1711593629243
 31
0.0
  0
LINE
  5
151
330
1F
100
AcDbEntity
  8
0
  6
Continuous
 62
     7
100
AcDbLine
 10
-983.6095962223768
 20
306.2013179480196
 30
0.0
 11
-983.6095962223768
 21
309.1711593629243
 31
0.0
  0
LINE
  5
152
330
1F
100
AcDbEntity
  8
0
  6
Continuous
 62
     7
100
AcDbLine
 10
-984.8095962223769
 20
310.1077046658806
 30
0.0
 11
-983.6095962223768
 21
310.1077046658806
 31
0.0
  0
LINE
  5
153
330
1F
100
AcDbEntity
  8
0
  6
Continuous
 62
     7
100
AcDbLine
 10
-984.8095962223769
 20
309.1711593629243
 30
0.0
 11
-984.8095962223769
 21
309.9513179480196
 31
0.0
  0
LINE
  5
154
330
1F
100
AcDbEntity
  8
0
  6
Continuous
 62
     7
100
AcDbLine
 10
-984.8095962223769
 20
309.9513179480196
 30
0.0
 11
-984.8095962223769
 21
310.1077046658806
 31
0.0
  0
LINE
  5
155
330
1F
100
AcDbEntity
  8
0
  6
Continuous
 62
     7
100
AcDbLine
 10
-983.6095962223768
 20
309.1711593629243
 30
0.0
 11
-983.6095962223768
 21
310.1077046658806
 31
0.0
  0
LINE
  5
156
330
1F
100
AcDbEntity
  8
0
  6
Continuous
 62
     7
100
AcDbLine
 10
-986.7595962223768
 20
307.9513179480196
 30
0.0
 11
-986.7595962223768
 21
306.8513179480196
 31
0.0
  0
LINE
  5
157
330
1F
100
AcDbEntity
  8
0
  6
Continuous
 62
     7
100
AcDbLine
 10
-986.7595962223768
 20
302.0513179480196
 30
0.0
 11
-986.7595962223768
 21
300.9513179480196
 31
0.0
  0
LINE
  5
158
330
1F
100
AcDbEntity
  8
0
  6
Continuous
 62
     7
100
AcDbLine
 10
-986.7595962223768
 20
306.8513179480196
 30
0.0
 11
-986.7595962223768
 21
302.0513179480196
 31
0.0
  0
LINE
  5
159
330
1F
100
AcDbEntity
  8
0
  6
Continuous
 62
     7
100
AcDbLine
 10
-987.7595962223768
 20
300.9513179480196
 30
0.0
 11
-986.7595962223768
 21
300.9513179480196
 31
0.0
  0
LINE
  5
15A
330
1F
100
AcDbEntity
  8
0
  6
Continuous
 62
     7
100
AcDbLine
 10
-986.7595962223768
 20
306.8513179480196
 30
0.0
 11
-986.6095962223768
 21
306.8513179480196
 31
0.0
  0
LINE
  5
15B
330
1F
100
AcDbEntity
  8
0
  6
Continuous
 62
     7
100
AcDbLine
 10
-984.8095962223769
 20
302.7720916212128
 30
0.0
 11
-984.8095962223769
 21
301.5660145856118
 31
0.0
  0
LINE
  5
15C
330
1F
100
AcDbEntity
  8
0
  6
Continuous
 62
     7
100
AcDbLine
 10
-987.7595962223768
 20
307.9513179480196
 30
0.0
 11
-987.7595962223768
 21
300.9513179480196
 31
0.0
  0
LINE
  5
15D
330
1F
100
AcDbEntity
  8
0
  6
Continuous
 62
     7
100
AcDbLine
 10
-984.8095962223769
 20
301.5660145856118
 30
0.0
 11
-984.8095962223769
 21
299.8418374869479
 31
0.0
  0
LINE
  5
15E
330
1F
100
AcDbEntity
  8
0
  6
Continuous
 62
     7
100
AcDbLine
 10
-983.6095962223768
 20
302.7720916212128
 30
0.0
 11
-983.6095962223768
 21
302.7013179480196
 31
0.0
  0
LINE
  5
15F
330
1F
100
AcDbEntity
  8
0
  6
Continuous
 62
     7
100
AcDbLine
 10
-983.6095962223768
 20
301.5660145856118
 30
0.0
 11
-983.6095962223767
 21
300.0301138341647
 31
0.0
  0
LINE
  5
160
330
1F
100
AcDbEntity
  8
0
  6
Continuous
 62
     7
100
AcDbLine
 10
-983.6095962223768
 20
301.5660145856118
 30
0.0
 11
-983.6095962223768
 21
302.7013179480196
 31
0.0
  0
LINE
  5
161
330
1F
100
AcDbEntity
  8
0
  6
Continuous
 62
     7
100
AcDbLine
 10
-986.7595962223768
 20
302.0513179480196
 30
0.0
 11
-986.6095962223768
 21
302.0513179480196
 31
0.0
  0
LINE
  5
162
330
1F
100
AcDbEntity
  8
0
  6
Continuous
 62
     7
100
AcDbLine
 10
-987.7595962223768
 20
307.9513179480196
 30
0.0
 11
-986.7595962223768
 21
307.9513179480196
 31
0.0
  0
LINE
  5
163
330
1F
100
AcDbEntity
  8
0
  6
Continuous
 62
     7
100
AcDbLine
 10
-983.6095962223768
 20
302.7013179480196
 30
0.0
 11
-983.4095962223768
 21
302.7013179480196
 31
0.0
  0
LINE
  5
164
330
1F
100
AcDbEntity
  8
0
  6
Continuous
 62
     7
100
AcDbLine
 10
-983.6095962223768
 20
306.2013179480196
 30
0.0
 11
-983.4095962223768
 21
306.2013179480196
 31
0.0
  0
LINE
  5
165
330
1F
100
AcDbEntity
  8
0
  6
Continuous
 62
     7
100
AcDbLine
 10
-983.6095962223768
 20
306.2013179480196
 30
0.0
 11
-983.6095962223768
 21
302.7720916212128
 31
0.0
  0
LINE
  5
166
330
1F
100
AcDbEntity
  8
0
  6
Continuous
 62
     7
100
AcDbLine
 10
-983.4095962223768
 20
306.2013179480196
 30
0.0
 11
-983.4095962223768
 21
302.7013179480196
 31
0.0
  0
LINE
  5
167
330
1F
100
AcDbEntity
  8
0
  6
Continuous
 62
     7
100
AcDbLine
 10
-986.4095962223768
 20
279.671492508121
 30
0.0
 11
-986.4095962223768
 21
280.6516247068052
 31
0.0
  0
LINE
  5
168
330
1F
100
AcDbEntity
  8
0
  6
Continuous
 62
     7
100
AcDbLine
 10
-985.209596222377
 20
279.671492508121
 30
0.0
 11
-985.209596222377
 21
280.6516247068052
 31
0.0
  0
LINE
  5
169
330
1F
100
AcDbEntity
  8
0
  6
Continuous
 62
     7
100
AcDbLine
 10
-986.4095962223768
 20
288.3188867187153
 30
0.0
 11
-986.4095962223768
 21
287.8935232635555
 31
0.0
  0
LINE
  5
16A
330
1F
100
AcDbEntity
  8
0
  6
Continuous
 62
     7
100
AcDbLine
 10
-986.4095962223768
 20
279.671492508121
 30
0.0
 11
-985.209596222377
 21
279.671492508121
 31
0.0
  0
LINE
  5
16B
330
1F
100
AcDbEntity
  8
0
  6
Continuous
 62
     7
100
AcDbLine
 10
-985.1095962223767
 20
284.301317948029
 30
0.0
 11
-985.1095962223767
 21
283.451317948029
 31
0.0
  0
LINE
  5
16C
330
1F
100
AcDbEntity
  8
0
  6
Continuous
 62
     7
100
AcDbLine
 10
-983.9095962223768
 20
284.3590703527382
 30
0.0
 11
-983.9095962223768
 21
286.451317948029
 31
0.0
  0
LINE
  5
16D
330
1F
100
AcDbEntity
  8
0
  6
Continuous
 62
     7
100
AcDbLine
 10
-983.9095962223768
 20
284.3590703527382
 30
0.0
 11
-983.9095962223768
 21
283.451317948029
 31
0.0
  0
LINE
  5
16E
330
1F
100
AcDbEntity
  8
0
  6
Continuous
 62
     7
100
AcDbLine
 10
-987.9095962223768
 20
289.451317948029
 30
0.0
 11
-987.8095962223769
 21
289.451317948029
 31
0.0
  0
LINE
  5
16F
330
1F
100
AcDbEntity
  8
0
  6
Continuous
 62
     7
100
AcDbLine
 10
-983.9095962223768
 20
288.601317948029
 30
0.0
 11
-983.9095962223768
 21
286.451317948029
 31
0.0
  0
LINE
  5
170
330
1F
100
AcDbEntity
  8
0
  6
Continuous
 62
     7
100
AcDbLine
 10
-987.3095962223769
 20
283.951317948029
 30
0.0
 11
-986.4095962223768
 21
283.951317948029
 31
0.0
  0
LINE
  5
171
330
1F
100
AcDbEntity
  8
0
  6
Continuous
 62
     7
100
AcDbLine
 10
-985.1095962223767
 20
283.451317948029
 30
0.0
 11
-983.9095962223768
 21
283.451317948029
 31
0.0
  0
LINE
  5
172
330
1F
100
AcDbEntity
  8
0
  6
Continuous
 62
     7
100
AcDbLine
 10
-987.9095962223768
 20
283.451317948029
 30
0.0
 11
-987.8095962223769
 21
283.451317948029
 31
0.0
  0
LINE
  5
173
330
1F
100
AcDbEntity
  8
0
  6
Continuous
 62
     7
100
AcDbLine
 10
-987.3095962223769
 20
288.951317948029
 30
0.0
 11
-986.4095962223768
 21
288.951317948029
 31
0.0
  0
LINE
  5
174
330
1F
100
AcDbEntity
  8
0
  6
Continuous
 62
     7
100
AcDbLine
 10
-983.9307219594278
 20
288.601317948029
 30
0.0
 11
-983.9095962223768
 21
288.601317948029
 31
0.0
  0
LINE
  5
175
330
1F
100
AcDbEntity
  8
0
  6
Continuous
 62
     7
100
AcDbLine
 10
-985.209596222377
 20
284.301317948029
 30
0.0
 11
-985.1095962223767
 21
284.301317948029
 31
0.0
  0
LINE
  5
176
330
1F
100
AcDbEntity
  8
0
  6
Continuous
 62
     7
100
AcDbLine
 10
-987.2014222159548
 20
294.4418374869535
 30
0.0
 11
-986.9676410020219
 21
294.2080562730206
 31
0.0
  0
LINE
  5
177
330
1F
100
AcDbEntity
  8
0
  6
Continuous
 62
     7
100
AcDbLine
 10
-987.3095962223769
 20
283.951317948029
 30
0.0
 11
-987.8095962223769
 21
283.451317948029
 31
0.0
  0
LINE
  5
178
330
1F
100
AcDbEntity
  8
0
  6
Continuous
 62
     7
100
AcDbLine
 10
-987.3095962223769
 20
288.951317948029
 30
0.0
 11
-987.8095962223769
 21
289.451317948029
 31
0.0
  0
LINE
  5
179
330
1F
100
AcDbEntity
  8
0
  6
Continuous
 62
     7
100
AcDbLine
 10
-1008.146026812986
 20
393.6499728976979
 30
0.0
 11
-1007.873754857486
 21
395.4901965539169
 31
0.0
  0
LINE
  5
17A
330
1F
100
AcDbEntity
  8
0
  6
Continuous
 62
     7
100
AcDbLine
 10
-994.9537644981831
 20
397.531814775774
 30
0.0
 11
-1004.865427946571
 21
397.5318147757739
 31
0.0
  0
LINE
  5
17B
330
1F
100
AcDbEntity
  8
0
  6
Continuous
 62
     7
100
AcDbLine
 10
-991.6731656317673
 20
393.6499728976979
 30
0.0
 11
-991.9454375872679
 21
395.4901965539169
 31
0.0
  0
LINE
  5
17C
330
1F
100
AcDbEntity
  8
0
  6
Continuous
 62
     7
100
AcDbLine
 10
-1011.909596222377
 20
289.45131794803
 30
0.0
 11
-1011.909596222377
 21
283.45131794803
 31
0.0
  0
LINE
  5
17D
330
1F
100
AcDbEntity
  8
0
  6
Continuous
 62
     7
100
AcDbLine
 10
-1024.893313079785
 20
370.6355481171151
 30
0.0
 11
-1020.620921087782
 21
363.235548117115
 31
0.0
  0
LINE
  5
17E
330
1F
100
AcDbEntity
  8
0
  6
Continuous
 62
     7
100
AcDbLine
 10
-1016.909596222377
 20
370.6355481171151
 30
0.0
 11
-1016.809596222377
 21
370.6355481171151
 31
0.0
  0
LINE
  5
17F
102
{ACAD_REACTORS
330
361
102
}
330
1F
100
AcDbEntity
  8
0
  6
Continuous
 62
     7
100
AcDbLine
 10
-1016.909596222377
 20
370.6355481171151
 30
0.0
 11
-1016.909596222377
 21
368.6855481171151
 31
0.0
  0
LINE
  5
180
330
1F
100
AcDbEntity
  8
0
  6
Continuous
 62
     7
100
AcDbLine
 10
-1016.809596222377
 20
368.735548117115
 30
0.0
 11
-1016.809596222377
 21
370.6355481171151
 31
0.0
  0
LINE
  5
181
330
1F
100
AcDbEntity
  8
0
  6
Continuous
 62
     7
100
AcDbLine
 10
-1016.554754992538
 20
366.835548117115
 30
0.0
 11
-1016.434528654316
 21
366.835548117115
 31
0.0
  0
LINE
  5
182
330
1F
100
AcDbEntity
  8
0
  6
Continuous
 62
     7
100
AcDbLine
 10
-1011.429890324124
 20
363.735548117115
 30
0.0
 11
-1011.809596222377
 21
363.735548117115
 31
0.0
  0
LINE
  5
183
102
{ACAD_REACTORS
330
361
102
}
330
1F
100
AcDbEntity
  8
0
  6
Continuous
 62
     7
100
AcDbLine
 10
-1019.06207536097
 20
364.035548117115
 30
0.0
 11
-1022.785984597243
 21
370.485548117115
 31
0.0
  0
LINE
  5
184
330
1F
100
AcDbEntity
  8
0
  6
Continuous
 62
     7
100
AcDbLine
 10
-1022.872587137622
 20
370.1355481171151
 30
0.0
 11
-1019.321882982106
 21
363.985548117115
 31
0.0
  0
LINE
  5
185
330
1F
100
AcDbEntity
  8
0
  6
Continuous
 62
     7
100
AcDbLine
 10
-1023.738612541406
 20
370.6355481171151
 30
0.0
 11
-1024.893313079785
 21
370.6355481171151
 31
0.0
  0
LINE
  5
186
102
{ACAD_REACTORS
330
361
102
}
330
1F
100
AcDbEntity
  8
0
  6
Continuous
 62
     7
100
AcDbLine
 10
-974.723806770752
 20
370.985548117115
 30
0.0
 11
-973.7134437996702
 21
372.735548117115
 31
0.0
  0
LINE
  5
187
330
1F
100
AcDbEntity
  8
0
  6
Continuous
 62
     7
100
AcDbLine
 10
-979.1982713569718
 20
363.235548117115
 30
0.0
 11
-974.9258793649684
 21
370.6355481171151
 31
0.0
  0
LINE
  5
188
330
1F
100
AcDbEntity
  8
0
  6
Continuous
 62
     7
100
AcDbLine
 10
-988.0095962223769
 20
363.735548117115
 30
0.0
 11
-988.3893021206111
 21
363.7355481171308
 31
0.0
  0
LINE
  5
189
330
1F
100
AcDbEntity
  8
0
  6
Continuous
 62
     7
100
AcDbLine
 10
-988.3893021206111
 20
363.7355481171308
 30
0.0
 11
-991.1095962223768
 21
363.735548117115
 31
0.0
  0
LINE
  5
18A
330
1F
100
AcDbEntity
  8
0
  6
Continuous
 62
     7
100
AcDbLine
 10
-983.384663790438
 20
366.835548117115
 30
0.0
 11
-983.2644374522163
 21
366.835548117115
 31
0.0
  0
LINE
  5
18B
102
{ACAD_REACTORS
330
361
102
}
330
1F
100
AcDbEntity
  8
0
  6
Continuous
 62
     7
100
AcDbLine
 10
-977.0332078475107
 20
370.485548117115
 30
0.0
 11
-980.7571170837837
 21
364.035548117115
 31
0.0
  0
LINE
  5
18C
330
1F
100
AcDbEntity
  8
0
  6
Continuous
 62
     7
100
AcDbLine
 10
-983.0095962223769
 20
370.6355481171151
 30
0.0
 11
-982.9095962223769
 21
370.6355481171151
 31
0.0
  0
LINE
  5
18D
102
{ACAD_REACTORS
330
361
102
}
330
1F
100
AcDbEntity
  8
0
  6
Continuous
 62
     7
100
AcDbLine
 10
-982.9095962223769
 20
368.6855481171151
 30
0.0
 11
-982.9095962223769
 21
370.6355481171151
 31
0.0
  0
LINE
  5
18E
330
1F
100
AcDbEntity
  8
0
  6
Continuous
 62
     7
100
AcDbLine
 10
-980.4973094626483
 20
363.985548117115
 30
0.0
 11
-976.9466053071321
 21
370.1355481171151
 31
0.0
  0
LINE
  5
18F
330
1F
100
AcDbEntity
  8
0
  6
Continuous
 62
     7
100
AcDbLine
 10
-974.9258793649684
 20
370.6355481171151
 30
0.0
 11
-976.0805799033477
 21
370.6355481171151
 31
0.0
  0
LINE
  5
190
102
{ACAD_REACTORS
330
361
102
}
330
1F
100
AcDbEntity
  8
0
  6
Continuous
 62
     7
100
AcDbLine
 10
-976.6001951456184
 20
370.735548117115
 30
0.0
 11
-975.1568194726442
 21
370.735548117115
 31
0.0
  0
LINE
  5
191
330
1F
100
AcDbEntity
  8
0
  6
Continuous
 62
     7
100
AcDbLine
 10
-974.9258793649684
 20
370.6355481171151
 30
0.0
 11
-974.723806770752
 21
370.985548117115
 31
0.0
  0
LINE
  5
192
330
1F
100
AcDbEntity
  8
0
  6
Continuous
 62
     7
100
AcDbLine
 10
-987.8585253948161
 20
393.2355481171149
 30
0.0
 11
-1011.960667049938
 21
393.2355481171149
 31
0.0
  0
LINE
  5
193
330
1F
100
AcDbEntity
  8
0
  6
Continuous
 62
     7
100
AcDbLine
 10
-995.0095962223769
 20
387.7355481171149
 30
0.0
 11
-1004.809596222377
 21
387.7355481171149
 31
0.0
  0
LINE
  5
194
330
1F
100
AcDbEntity
  8
0
  6
Continuous
 62
     7
100
AcDbLine
 10
-991.1095962211385
 20
387.7355481171149
 30
0.0
 11
-995.0095962223769
 21
387.7355481171149
 31
0.0
  0
LINE
  5
195
330
1F
100
AcDbEntity
  8
0
  6
Continuous
 62
     7
100
AcDbLine
 10
-1004.809596222377
 20
387.7355481171149
 30
0.0
 11
-1008.709596222377
 21
387.7355481171149
 31
0.0
  0
LINE
  5
196
330
1F
100
AcDbEntity
  8
0
  6
Continuous
 62
     7
100
AcDbLine
 10
-991.1095962211385
 20
387.7355481171149
 30
0.0
 11
-988.3893021205926
 21
387.7355481170833
 31
0.0
  0
LINE
  5
197
330
1F
100
AcDbEntity
  8
0
  6
Continuous
 62
     7
100
AcDbLine
 10
-987.8585253948161
 20
391.7355481171149
 30
0.0
 11
-1011.960667049938
 21
391.7355481171149
 31
0.0
  0
LINE
  5
198
102
{ACAD_REACTORS
330
361
102
}
330
1F
100
AcDbEntity
  8
0
  6
Continuous
 62
     7
100
AcDbLine
 10
-995.0095962223769
 20
387.785548117115
 30
0.0
 11
-1004.809596222377
 21
387.785548117115
 31
0.0
  0
LINE
  5
199
102
{ACAD_REACTORS
330
361
102
}
330
1F
100
AcDbEntity
  8
0
  6
Continuous
 62
     7
100
AcDbLine
 10
-987.9095962223769
 20
387.785548117115
 30
0.0
 11
-995.0095962223769
 21
387.785548117115
 31
0.0
  0
LINE
  5
19A
102
{ACAD_REACTORS
330
361
102
}
330
1F
100
AcDbEntity
  8
0
  6
Continuous
 62
     7
100
AcDbLine
 10
-1004.809596222377
 20
387.785548117115
 30
0.0
 11
-1011.909596222377
 21
387.785548117115
 31
0.0
  0
LINE
  5
19B
102
{ACAD_REACTORS
330
361
102
}
330
1F
100
AcDbEntity
  8
0
  6
Continuous
 62
     7
100
AcDbLine
 10
-1011.787461969181
 20
391.635548117115
 30
0.0
 11
-988.0317304755729
 21
391.635548117115
 31
0.0
  0
LINE
  5
19C
330
1F
100
AcDbEntity
  8
0
  6
Continuous
 62
     7
100
AcDbLine
 10
-995.0095962223769
 20
387.7355481171149
 30
0.0
 11
-995.0095962223769
 21
387.785548117115
 31
0.0
  0
LINE
  5
19D
330
1F
100
AcDbEntity
  8
0
  6
Continuous
 62
     7
100
AcDbLine
 10
-1004.809596222377
 20
387.785548117115
 30
0.0
 11
-1004.809596222377
 21
387.7355481171149
 31
0.0
  0
LINE
  5
19E
330
1F
100
AcDbEntity
  8
0
  6
Continuous
 62
     7
100
AcDbLine
 10
-988.0095962223769
 20
387.7355481171149
 30
0.0
 11
-988.3893021205926
 21
387.7355481170833
 31
0.0
  0
LINE
  5
19F
330
1F
100
AcDbEntity
  8
0
  6
Continuous
 62
     7
100
AcDbLine
 10
-974.9258793649684
 20
380.835548117115
 30
0.0
 11
-979.1982713569718
 21
388.2355481171149
 31
0.0
  0
LINE
  5
1A0
102
{ACAD_REACTORS
330
361
102
}
330
1F
100
AcDbEntity
  8
0
  6
Continuous
 62
     7
100
AcDbLine
 10
-982.9095962223769
 20
380.835548117115
 30
0.0
 11
-982.9095962223769
 21
382.785548117115
 31
0.0
  0
LINE
  5
1A1
330
1F
100
AcDbEntity
  8
0
  6
Continuous
 62
     7
100
AcDbLine
 10
-983.0095962223769
 20
380.835548117115
 30
0.0
 11
-982.9095962223769
 21
380.835548117115
 31
0.0
  0
LINE
  5
1A2
330
1F
100
AcDbEntity
  8
0
  6
Continuous
 62
     7
100
AcDbLine
 10
-983.0095962223769
 20
382.7355481171149
 30
0.0
 11
-983.0095962223769
 21
380.835548117115
 31
0.0
  0
LINE
  5
1A3
330
1F
100
AcDbEntity
  8
0
  6
Continuous
 62
     7
100
AcDbLine
 10
-983.384663790438
 20
384.635548117115
 30
0.0
 11
-983.2644374522163
 21
384.635548117115
 31
0.0
  0
LINE
  5
1A4
330
1F
100
AcDbEntity
  8
0
  6
Continuous
 62
     7
100
AcDbLine
 10
-976.9466053071321
 20
381.335548117115
 30
0.0
 11
-980.4973094626483
 21
387.4855481171149
 31
0.0
  0
LINE
  5
1A5
102
{ACAD_REACTORS
330
361
102
}
330
1F
100
AcDbEntity
  8
0
  6
Continuous
 62
     7
100
AcDbLine
 10
-980.7571170837837
 20
387.4355481171151
 30
0.0
 11
-977.0332078475107
 21
380.9855481171149
 31
0.0
  0
LINE
  5
1A6
330
1F
100
AcDbEntity
  8
0
  6
Continuous
 62
     7
100
AcDbLine
 10
-976.0805799033477
 20
380.835548117115
 30
0.0
 11
-974.9258793649684
 21
380.835548117115
 31
0.0
  0
LINE
  5
1A7
102
{ACAD_REACTORS
330
361
102
}
330
1F
100
AcDbEntity
  8
0
  6
Continuous
 62
     7
100
AcDbLine
 10
-976.6001951456184
 20
380.7355481171149
 30
0.0
 11
-975.1568194726442
 21
380.7355481171149
 31
0.0
  0
LINE
  5
1A8
102
{ACAD_REACTORS
330
361
102
}
330
1F
100
AcDbEntity
  8
0
  6
Continuous
 62
     7
100
AcDbLine
 10
-973.7134437996704
 20
378.735548117115
 30
0.0
 11
-974.7238067707522
 21
380.4855481171149
 31
0.0
  0
LINE
  5
1A9
330
1F
100
AcDbEntity
  8
0
  6
Continuous
 62
     7
100
AcDbLine
 10
-974.7238067707522
 20
380.4855481171149
 30
0.0
 11
-974.9258793649684
 21
380.835548117115
 31
0.0
  0
LINE
  5
1AA
330
1F
100
AcDbEntity
  8
0
  6
Continuous
 62
     7
100
AcDbLine
 10
-1011.909596222377
 20
366.9355481171151
 30
0.0
 11
-1011.909596222377
 21
384.5355481171129
 31
0.0
  0
LINE
  5
1AB
330
1F
100
AcDbEntity
  8
0
  6
Continuous
 62
     7
100
AcDbLine
 10
-1016.809596222377
 20
370.6355481171151
 30
0.0
 11
-1016.809596222377
 21
380.835548117115
 31
0.0
  0
LINE
  5
1AC
330
1F
100
AcDbEntity
  8
0
  6
Continuous
 62
     7
100
AcDbLine
 10
-1016.809596222377
 20
380.835548117115
 30
0.0
 11
-1016.809596222377
 21
382.7355481171149
 31
0.0
  0
LINE
  5
1AD
102
{ACAD_REACTORS
330
361
102
}
330
1F
100
AcDbEntity
  8
0
  6
Continuous
 62
     7
100
AcDbLine
 10
-1016.909596222377
 20
380.835548117115
 30
0.0
 11
-1016.909596222377
 21
370.6355481171151
 31
0.0
  0
LINE
  5
1AE
102
{ACAD_REACTORS
330
361
102
}
330
1F
100
AcDbEntity
  8
0
  6
Continuous
 62
     7
100
AcDbLine
 10
-1026.105748645083
 20
372.735548117115
 30
0.0
 11
-1025.095385674002
 21
370.985548117115
 31
0.0
  0
LINE
  5
1AF
330
1F
100
AcDbEntity
  8
0
  6
Continuous
 62
     7
100
AcDbLine
 10
-1024.893313079785
 20
380.835548117115
 30
0.0
 11
-1025.095385674002
 21
380.4855481171149
 31
0.0
  0
LINE
  5
1B0
102
{ACAD_REACTORS
330
361
102
}
330
1F
100
AcDbEntity
  8
0
  6
Continuous
 62
     7
100
AcDbLine
 10
-1024.662372972109
 20
370.735548117115
 30
0.0
 11
-1023.218997299135
 21
370.735548117115
 31
0.0
  0
LINE
  5
1B1
330
1F
100
AcDbEntity
  8
0
  6
Continuous
 62
     7
100
AcDbLine
 10
-1025.095385674002
 20
370.985548117115
 30
0.0
 11
-1024.893313079785
 21
370.6355481171151
 31
0.0
  0
LINE
  5
1B2
330
1F
100
AcDbEntity
  8
0
  6
Continuous
 62
     7
100
AcDbLine
 10
-987.9095962223769
 20
366.935548117115
 30
0.0
 11
-987.9095962223769
 21
384.5355481171094
 31
0.0
  0
LINE
  5
1B3
330
1F
100
AcDbEntity
  8
0
  6
Continuous
 62
     7
100
AcDbLine
 10
-983.0095962223769
 20
370.6355481171151
 30
0.0
 11
-983.0095962223769
 21
368.735548117115
 31
0.0
  0
LINE
  5
1B4
330
1F
100
AcDbEntity
  8
0
  6
Continuous
 62
     7
100
AcDbLine
 10
-983.0095962223769
 20
380.835548117115
 30
0.0
 11
-983.0095962223769
 21
370.6355481171151
 31
0.0
  0
LINE
  5
1B5
102
{ACAD_REACTORS
330
361
102
}
330
1F
100
AcDbEntity
  8
0
  6
Continuous
 62
     7
100
AcDbLine
 10
-982.9095962223769
 20
370.6355481171151
 30
0.0
 11
-982.9095962223769
 21
380.835548117115
 31
0.0
  0
LINE
  5
1B6
330
1F
100
AcDbEntity
  8
0
  6
Continuous
 62
     7
100
AcDbLine
 10
-1011.960667049938
 20
358.235548117115
 30
0.0
 11
-987.8585253948161
 21
358.235548117115
 31
0.0
  0
LINE
  5
1B7
330
1F
100
AcDbEntity
  8
0
  6
Continuous
 62
     7
100
AcDbLine
 10
-995.0095962223769
 20
363.735548117115
 30
0.0
 11
-1004.809596222377
 21
363.735548117115
 31
0.0
  0
LINE
  5
1B8
330
1F
100
AcDbEntity
  8
0
  6
Continuous
 62
     7
100
AcDbLine
 10
-1004.809596222377
 20
363.735548117115
 30
0.0
 11
-1008.709596223613
 21
363.735548117115
 31
0.0
  0
LINE
  5
1B9
330
1F
100
AcDbEntity
  8
0
  6
Continuous
 62
     7
100
AcDbLine
 10
-991.1095962223768
 20
363.735548117115
 30
0.0
 11
-995.0095962223769
 21
363.735548117115
 31
0.0
  0
LINE
  5
1BA
330
1F
100
AcDbEntity
  8
0
  6
Continuous
 62
     7
100
AcDbLine
 10
-1008.709596223613
 20
363.735548117115
 30
0.0
 11
-1011.429890324124
 21
363.735548117115
 31
0.0
  0
LINE
  5
1BB
330
1F
100
AcDbEntity
  8
0
  6
Continuous
 62
     7
100
AcDbLine
 10
-995.0095962223769
 20
363.735548117115
 30
0.0
 11
-995.0095962223769
 21
363.6855481171151
 31
0.0
  0
LINE
  5
1BC
102
{ACAD_REACTORS
330
361
102
}
330
1F
100
AcDbEntity
  8
0
  6
Continuous
 62
     7
100
AcDbLine
 10
-987.9095962223769
 20
363.6855481171151
 30
0.0
 11
-995.0095962223769
 21
363.6855481171151
 31
0.0
  0
LINE
  5
1BD
330
1F
100
AcDbEntity
  8
0
  6
Continuous
 62
     7
100
AcDbLine
 10
-1004.809596222377
 20
363.6855481171151
 30
0.0
 11
-1004.809596222377
 21
363.735548117115
 31
0.0
  0
LINE
  5
1BE
102
{ACAD_REACTORS
330
361
102
}
330
1F
100
AcDbEntity
  8
0
  6
Continuous
 62
     7
100
AcDbLine
 10
-995.0095962223769
 20
363.6855481171151
 30
0.0
 11
-1004.809596222377
 21
363.6855481171151
 31
0.0
  0
LINE
  5
1BF
102
{ACAD_REACTORS
330
361
102
}
330
1F
100
AcDbEntity
  8
0
  6
Continuous
 62
     7
100
AcDbLine
 10
-1004.809596222377
 20
363.6855481171151
 30
0.0
 11
-1011.909596222377
 21
363.6855481171151
 31
0.0
  0
LINE
  5
1C0
102
{ACAD_REACTORS
330
361
102
}
330
1F
100
AcDbEntity
  8
0
  6
Continuous
 62
     7
100
AcDbLine
 10
-988.031730475573
 20
359.835548117115
 30
0.0
 11
-1011.787461969181
 21
359.835548117115
 31
0.0
  0
LINE
  5
1C1
330
1F
100
AcDbEntity
  8
0
  6
Continuous
 62
     7
100
AcDbLine
 10
-1011.960667049938
 20
359.735548117115
 30
0.0
 11
-987.8585253948161
 21
359.735548117115
 31
0.0
  0
LINE
  5
1C2
102
{ACAD_REACTORS
330
361
102
}
330
1F
100
AcDbEntity
  8
0
  6
Continuous
 62
     7
100
AcDbLine
 10
-1025.095385674002
 20
380.4855481171149
 30
0.0
 11
-1026.105748645083
 21
378.735548117115
 31
0.0
  0
LINE
  5
1C3
330
1F
100
AcDbEntity
  8
0
  6
Continuous
 62
     7
100
AcDbLine
 10
-1020.620921087782
 20
388.2355481171149
 30
0.0
 11
-1024.893313079785
 21
380.835548117115
 31
0.0
  0
LINE
  5
1C4
330
1F
100
AcDbEntity
  8
0
  6
Continuous
 62
     7
100
AcDbLine
 10
-1016.434528654316
 20
384.635548117115
 30
0.0
 11
-1016.554754992538
 21
384.635548117115
 31
0.0
  0
LINE
  5
1C5
102
{ACAD_REACTORS
330
361
102
}
330
1F
100
AcDbEntity
  8
0
  6
Continuous
 62
     7
100
AcDbLine
 10
-1022.785984597243
 20
380.9855481171149
 30
0.0
 11
-1019.06207536097
 21
387.4355481171151
 31
0.0
  0
LINE
  5
1C6
102
{ACAD_REACTORS
330
361
102
}
330
1F
100
AcDbEntity
  8
0
  6
Continuous
 62
     7
100
AcDbLine
 10
-1016.909596222377
 20
382.785548117115
 30
0.0
 11
-1016.909596222377
 21
380.835548117115
 31
0.0
  0
LINE
  5
1C7
330
1F
100
AcDbEntity
  8
0
  6
Continuous
 62
     7
100
AcDbLine
 10
-1016.809596222377
 20
380.835548117115
 30
0.0
 11
-1016.909596222377
 21
380.835548117115
 31
0.0
  0
LINE
  5
1C8
330
1F
100
AcDbEntity
  8
0
  6
Continuous
 62
     7
100
AcDbLine
 10
-1019.321882982106
 20
387.4855481171149
 30
0.0
 11
-1022.872587137622
 21
381.335548117115
 31
0.0
  0
LINE
  5
1C9
330
1F
100
AcDbEntity
  8
0
  6
Continuous
 62
     7
100
AcDbLine
 10
-1011.429890324123
 20
387.7355481171156
 30
0.0
 11
-1008.709596222377
 21
387.7355481171149
 31
0.0
  0
LINE
  5
1CA
330
1F
100
AcDbEntity
  8
0
  6
Continuous
 62
     7
100
AcDbLine
 10
-1011.429890324123
 20
387.7355481171156
 30
0.0
 11
-1011.809596222377
 21
387.7355481171149
 31
0.0
  0
LINE
  5
1CB
330
1F
100
AcDbEntity
  8
0
  6
Continuous
 62
     7
100
AcDbLine
 10
-1024.893313079785
 20
380.835548117115
 30
0.0
 11
-1023.738612541406
 21
380.835548117115
 31
0.0
  0
LINE
  5
1CC
102
{ACAD_REACTORS
330
361
102
}
330
1F
100
AcDbEntity
  8
0
  6
Continuous
 62
     7
100
AcDbLine
 10
-1023.218997299135
 20
380.7355481171149
 30
0.0
 11
-1024.662372972109
 21
380.7355481171149
 31
0.0
  0
LINE
  5
1CD
330
1F
100
AcDbEntity
  8
0
  6
Continuous
 62
     7
100
AcDbLine
 10
-987.9095962223769
 20
265.85131794803
 30
0.0
 11
-987.9095962223769
 21
291.95131794803
 31
0.0
  0
LINE
  5
1CE
102
{ACAD_REACTORS
330
35F
102
}
330
1F
100
AcDbEntity
  8
0
  6
Continuous
 62
     7
100
AcDbLine
 10
-972.9095962223769
 20
260.40131794803
 30
0.0
 11
-972.9095962223769
 21
262.80131794803
 31
0.0
  0
LINE
  5
1CF
102
{ACAD_REACTORS
330
35F
102
}
330
1F
100
AcDbEntity
  8
0
  6
Continuous
 62
     7
100
AcDbLine
 10
-974.9258793649684
 20
260.85131794803
 30
0.0
 11
-974.9258793649684
 21
262.80131794803
 31
0.0
  0
LINE
  5
1D0
330
1F
100
AcDbEntity
  8
0
  6
Continuous
 62
     7
100
AcDbLine
 10
-973.7134437996702
 20
264.35131794803
 30
0.0
 11
-972.9095962223769
 21
264.35131794803
 31
0.0
  0
LINE
  5
1D1
102
{ACAD_REACTORS
330
35F
102
}
330
1F
100
AcDbEntity
  8
0
  6
Continuous
 62
     7
100
AcDbLine
 10
-1026.909596222377
 20
260.40131794803
 30
0.0
 11
-972.9095962223769
 21
260.40131794803
 31
0.0
  0
LINE
  5
1D2
330
1F
100
AcDbEntity
  8
0
  6
Continuous
 62
     7
100
AcDbLine
 10
-974.1464565015623
 20
264.85131794803
 30
0.0
 11
-973.4095962223769
 21
264.85131794803
 31
0.0
  0
LINE
  5
1D3
330
1F
100
AcDbEntity
  8
0
  6
Continuous
 62
     7
100
AcDbLine
 10
-1020.620921087782
 20
264.35131794803
 30
0.0
 11
-1011.960667049938
 21
264.35131794803
 31
0.0
  0
LINE
  5
1D4
102
{ACAD_REACTORS
330
35F
102
}
330
1F
100
AcDbEntity
  8
0
  6
Continuous
 62
     7
100
AcDbLine
 10
-1026.909596222377
 20
260.40131794803
 30
0.0
 11
-1026.909596222377
 21
262.80131794803
 31
0.0
  0
LINE
  5
1D5
102
{ACAD_REACTORS
330
35F
102
}
330
1F
100
AcDbEntity
  8
0
  6
Continuous
 62
     7
100
AcDbLine
 10
-1024.893313079786
 20
262.80131794803
 30
0.0
 11
-1024.893313079786
 21
260.85131794803
 31
0.0
  0
LINE
  5
1D6
330
1F
100
AcDbEntity
  8
0
  6
Continuous
 62
     7
100
AcDbLine
 10
-1011.159596222377
 20
234.95131794803
 30
0.0
 11
-1011.909596222377
 21
237.4044574118931
 31
0.0
  0
LINE
  5
1D7
330
1F
100
AcDbEntity
  8
0
  6
Continuous
 62
     7
100
AcDbLine
 10
-988.6595962223769
 20
234.95131794803
 30
0.0
 11
-987.9095962223769
 21
237.4044574118931
 31
0.0
  0
LINE
  5
1D8
330
1F
100
AcDbEntity
  8
0
  6
Continuous
 62
     7
100
AcDbLine
 10
-1011.159596222377
 20
234.95131794803
 30
0.0
 11
-1009.909596222377
 21
234.95131794803
 31
0.0
  0
LINE
  5
1D9
330
1F
100
AcDbEntity
  8
0
  6
Continuous
 62
     7
100
AcDbLine
 10
-987.9095962223769
 20
246.8273265084542
 30
0.0
 11
-987.9095962223769
 21
259.85131794803
 31
0.0
  0
LINE
  5
1DA
330
1F
100
AcDbEntity
  8
0
  6
Continuous
 62
     7
100
AcDbLine
 10
-987.9095962223769
 20
237.4044574118931
 30
0.0
 11
-987.9095962223769
 21
246.8273265084542
 31
0.0
  0
LINE
  5
1DB
330
1F
100
AcDbEntity
  8
0
  6
Continuous
 62
     7
100
AcDbLine
 10
-1008.709596222377
 20
291.95131794803
 30
0.0
 11
-1011.909596222377
 21
291.95131794803
 31
0.0
  0
LINE
  5
1DC
330
1F
100
AcDbEntity
  8
0
  6
Continuous
 62
     7
100
AcDbLine
 10
-1011.909596222377
 20
283.45131794803
 30
0.0
 11
-1011.909596222377
 21
265.85131794803
 31
0.0
  0
LINE
  5
1DD
330
1F
100
AcDbEntity
  8
0
  6
Continuous
 62
     7
100
AcDbLine
 10
-1011.909596222377
 20
291.95131794803
 30
0.0
 11
-1011.909596222377
 21
289.45131794803
 31
0.0
  0
LINE
  5
1DE
330
1F
100
AcDbEntity
  8
0
  6
Continuous
 62
     7
100
AcDbLine
 10
-1012.909596222377
 20
264.85131794803
 30
0.0
 11
-1011.960667049938
 21
264.85131794803
 31
0.0
  0
LINE
  5
1DF
330
1F
100
AcDbEntity
  8
0
  6
Continuous
 62
     7
100
AcDbLine
 10
-987.8585253948161
 20
264.35131794803
 30
0.0
 11
-1011.960667049938
 21
264.35131794803
 31
0.0
  0
LINE
  5
1E0
330
1F
100
AcDbEntity
  8
0
  6
Continuous
 62
     7
100
AcDbLine
 10
-973.7134437996702
 20
264.35131794803
 30
0.0
 11
-979.1982713569716
 21
264.35131794803
 31
0.0
  0
LINE
  5
1E1
330
1F
100
AcDbEntity
  8
0
  6
Continuous
 62
     7
100
AcDbLine
 10
-1026.909596222377
 20
264.35131794803
 30
0.0
 11
-1026.105748645084
 21
264.35131794803
 31
0.0
  0
LINE
  5
1E2
330
1F
100
AcDbEntity
  8
0
  6
Continuous
 62
     7
100
AcDbLine
 10
-1020.620921087782
 20
264.35131794803
 30
0.0
 11
-1026.105748645084
 21
264.35131794803
 31
0.0
  0
LINE
  5
1E3
330
1F
100
AcDbEntity
  8
0
  6
Continuous
 62
     7
100
AcDbLine
 10
-987.8585253948161
 20
264.35131794803
 30
0.0
 11
-979.1982713569716
 21
264.35131794803
 31
0.0
  0
LINE
  5
1E4
330
1F
100
AcDbEntity
  8
0
  6
Continuous
 62
     7
100
AcDbLine
 10
-986.9095962223769
 20
264.85131794803
 30
0.0
 11
-979.6312840588638
 21
264.85131794803
 31
0.0
  0
LINE
  5
1E5
330
1F
100
AcDbEntity
  8
0
  6
Continuous
 62
     7
100
AcDbLine
 10
-987.8585253948161
 20
264.85131794803
 30
0.0
 11
-986.9095962223769
 21
264.85131794803
 31
0.0
  0
LINE
  5
1E6
330
1F
100
AcDbEntity
  8
0
  6
Continuous
 62
     7
100
AcDbLine
 10
-974.1464565015623
 20
264.85131794803
 30
0.0
 11
-979.6312840588638
 21
264.85131794803
 31
0.0
  0
LINE
  5
1E7
330
1F
100
AcDbEntity
  8
0
  6
Continuous
 62
     7
100
AcDbLine
 10
-1020.18790838589
 20
264.85131794803
 30
0.0
 11
-1012.909596222377
 21
264.85131794803
 31
0.0
  0
LINE
  5
1E8
330
1F
100
AcDbEntity
  8
0
  6
Continuous
 62
     7
100
AcDbLine
 10
-1020.18790838589
 20
264.85131794803
 30
0.0
 11
-1025.672735943192
 21
264.85131794803
 31
0.0
  0
LINE
  5
1E9
330
1F
100
AcDbEntity
  8
0
  6
Continuous
 62
     7
100
AcDbLine
 10
-1026.409596222377
 20
264.85131794803
 30
0.0
 11
-1025.672735943192
 21
264.85131794803
 31
0.0
  0
LINE
  5
1EA
102
{ACAD_REACTORS
330
35F
102
}
330
1F
100
AcDbEntity
  8
0
  6
Continuous
 62
     7
100
AcDbLine
 10
-974.9258793649684
 20
260.85131794803
 30
0.0
 11
-1024.893313079786
 21
260.85131794803
 31
0.0
  0
LINE
  5
1EB
330
1F
100
AcDbEntity
  8
0
  6
Continuous
 62
     7
100
AcDbLine
 10
-987.9095962223769
 20
291.95131794803
 30
0.0
 11
-991.1095962223767
 21
291.95131794803
 31
0.0
  0
LINE
  5
1EC
330
1F
100
AcDbEntity
  8
0
  6
Continuous
 62
     7
100
AcDbLine
 10
-1011.909596222377
 20
259.85131794803
 30
0.0
 11
-1011.909596222377
 21
246.8273265084605
 31
0.0
  0
LINE
  5
1ED
330
1F
100
AcDbEntity
  8
0
  6
Continuous
 62
     7
100
AcDbLine
 10
-1011.909596222377
 20
237.4044574118931
 30
0.0
 11
-1011.909596222377
 21
246.8273265084605
 31
0.0
  0
LINE
  5
1EE
330
1F
100
AcDbEntity
  8
0
  6
Continuous
 62
     7
100
AcDbLine
 10
-991.1095962223767
 20
291.95131794803
 30
0.0
 11
-1008.709596222377
 21
291.95131794803
 31
0.0
  0
LINE
  5
1EF
330
1F
100
AcDbEntity
  8
0
  6
Continuous
 62
     7
100
AcDbLine
 10
-916.409596222377
 20
259.85131794803
 30
0.0
 11
-916.409596222377
 21
260.40131794803
 31
0.0
  0
LINE
  5
1F0
102
{ACAD_REACTORS
330
360
102
}
330
1F
100
AcDbEntity
  8
0
  6
Continuous
 62
     7
100
AcDbLine
 10
-909.5095962223769
 20
260.85131794803
 30
0.0
 11
-920.3095962223769
 21
260.85131794803
 31
0.0
  0
LINE
  5
1F1
330
1F
100
AcDbEntity
  8
0
  6
Continuous
 62
     7
100
AcDbLine
 10
-913.209596222377
 20
291.95131794803
 30
0.0
 11
-907.8736978375176
 21
291.95131794803
 31
0.0
  0
LINE
  5
1F2
330
1F
100
AcDbEntity
  8
0
  6
Continuous
 62
     7
100
AcDbLine
 10
-902.2595962223769
 20
284.3590703527392
 30
0.0
 11
-902.2595962223769
 21
286.45131794803
 31
0.0
  0
LINE
  5
1F3
330
1F
100
AcDbEntity
  8
0
  6
Continuous
 62
     7
100
AcDbLine
 10
-902.2595962223769
 20
285.1823163785856
 30
0.0
 11
-902.2530369554269
 21
285.1867025408281
 31
0.0
  0
LINE
  5
1F4
330
1F
100
AcDbEntity
  8
0
  6
Continuous
 62
     7
100
AcDbLine
 10
-904.409596222377
 20
283.45131794803
 30
0.0
 11
-904.409596222377
 21
284.30131794803
 31
0.0
  0
LINE
  5
1F5
330
1F
100
AcDbEntity
  8
0
  6
Continuous
 62
     7
100
AcDbLine
 10
-891.909596222377
 20
264.35131794803
 30
0.0
 11
-901.409596222377
 21
264.35131794803
 31
0.0
  0
LINE
  5
1F6
330
1F
100
AcDbEntity
  8
0
  6
Continuous
 62
     7
100
AcDbLine
 10
-907.409596222377
 20
264.35131794803
 30
0.0
 11
-901.409596222377
 21
264.35131794803
 31
0.0
  0
LINE
  5
1F7
102
{ACAD_REACTORS
330
360
102
}
330
1F
100
AcDbEntity
  8
0
  6
Continuous
 62
     7
100
AcDbLine
 10
-899.3095962223769
 20
260.85131794803
 30
0.0
 11
-888.5095962223769
 21
260.85131794803
 31
0.0
  0
LINE
  5
1F8
330
1F
100
AcDbEntity
  8
0
  6
Continuous
 62
     7
100
AcDbLine
 10
-886.909596222377
 20
260.85131794803
 30
0.0
 11
-886.909596222377
 21
264.35131794803
 31
0.0
  0
LINE
  5
1F9
330
1F
100
AcDbEntity
  8
0
  6
Continuous
 62
     7
100
AcDbLine
 10
-891.909596222377
 20
264.35131794803
 30
0.0
 11
-886.909596222377
 21
264.35131794803
 31
0.0
  0
LINE
  5
1FA
102
{ACAD_REACTORS
330
360
102
}
330
1F
100
AcDbEntity
  8
0
  6
Continuous
 62
     7
100
AcDbLine
 10
-888.5095962223769
 20
260.40131794803
 30
0.0
 11
-888.5095962223769
 21
260.85131794803
 31
0.0
  0
LINE
  5
1FB
330
1F
100
AcDbEntity
  8
0
  6
Continuous
 62
     7
100
AcDbLine
 10
-891.409596222377
 20
264.85131794803
 30
0.0
 11
-887.409596222377
 21
264.85131794803
 31
0.0
  0
LINE
  5
1FC
102
{ACAD_REACTORS
330
360
102
}
330
1F
100
AcDbEntity
  8
0
  6
Continuous
 62
     7
100
AcDbLine
 10
-899.3095962223769
 20
262.80131794803
 30
0.0
 11
-899.3095962223769
 21
260.85131794803
 31
0.0
  0
LINE
  5
1FD
102
{ACAD_REACTORS
330
360
102
}
330
1F
100
AcDbEntity
  8
1
  6
Continuous
 62
     7
100
AcDbLine
 10
-899.3095962223769
 20
262.80131794803
 30
0.0
 11
-909.5095962223769
 21
262.80131794803
 31
0.0
  0
LINE
  5
1FE
330
1F
100
AcDbEntity
  8
0
  6
Continuous
 62
     7
100
AcDbLine
 10
-921.909596222377
 20
260.85131794803
 30
0.0
 11
-921.909596222377
 21
264.35131794803
 31
0.0
  0
LINE
  5
1FF
102
{ACAD_REACTORS
330
360
102
}
330
1F
100
AcDbEntity
  8
0
  6
Continuous
 62
     7
100
AcDbLine
 10
-920.3095962223769
 20
260.40131794803
 30
0.0
 11
-920.3095962223769
 21
260.85131794803
 31
0.0
  0
LINE
  5
200
102
{ACAD_REACTORS
330
360
102
}
330
1F
100
AcDbEntity
  8
0
  6
Continuous
 62
     7
100
AcDbLine
 10
-920.3095962223769
 20
260.40131794803
 30
0.0
 11
-888.5095962223769
 21
260.40131794803
 31
0.0
  0
LINE
  5
201
330
1F
100
AcDbEntity
  8
0
  6
Continuous
 62
     7
100
AcDbLine
 10
-921.409596222377
 20
264.85131794803
 30
0.0
 11
-917.409596222377
 21
264.85131794803
 31
0.0
  0
LINE
  5
202
330
1F
100
AcDbEntity
  8
0
  6
Continuous
 62
     7
100
AcDbLine
 10
-915.659596222377
 20
234.95131794803
 30
0.0
 11
-916.409596222377
 21
237.4044574118931
 31
0.0
  0
LINE
  5
203
330
1F
100
AcDbEntity
  8
0
  6
Continuous
 62
     7
100
AcDbLine
 10
-893.159596222377
 20
234.95131794803
 30
0.0
 11
-892.409596222377
 21
237.4044574118931
 31
0.0
  0
LINE
  5
204
330
1F
100
AcDbEntity
  8
0
  6
Continuous
 62
     7
100
AcDbLine
 10
-915.659596222377
 20
234.95131794803
 30
0.0
 11
-893.159596222377
 21
234.95131794803
 31
0.0
  0
LINE
  5
205
330
1F
100
AcDbEntity
  8
0
  6
Continuous
 62
     7
100
AcDbLine
 10
-917.409596222377
 20
264.85131794803
 30
0.0
 11
-916.659596222377
 21
264.85131794803
 31
0.0
  0
LINE
  5
206
330
1F
100
AcDbEntity
  8
0
  6
Continuous
 62
     7
100
AcDbLine
 10
-907.159596222377
 20
264.85131794803
 30
0.0
 11
-916.659596222377
 21
264.85131794803
 31
0.0
  0
LINE
  5
207
330
1F
100
AcDbEntity
  8
0
  6
Continuous
 62
     7
100
AcDbLine
 10
-907.159596222377
 20
264.85131794803
 30
0.0
 11
-901.659596222377
 21
264.85131794803
 31
0.0
  0
LINE
  5
208
330
1F
100
AcDbEntity
  8
0
  6
Continuous
 62
     7
100
AcDbLine
 10
-916.409596222377
 20
265.85131794803
 30
0.0
 11
-916.409596222377
 21
291.95131794803
 31
0.0
  0
LINE
  5
209
102
{ACAD_REACTORS
330
360
102
}
330
1F
100
AcDbEntity
  8
0
  6
Continuous
 62
     7
100
AcDbLine
 10
-909.5095962223769
 20
260.85131794803
 30
0.0
 11
-909.5095962223769
 21
262.80131794803
 31
0.0
  0
LINE
  5
20A
330
1F
100
AcDbEntity
  8
0
  6
Continuous
 62
     7
100
AcDbLine
 10
-913.209596222377
 20
291.95131794803
 30
0.0
 11
-916.409596222377
 21
291.95131794803
 31
0.0
  0
LINE
  5
20B
330
1F
100
AcDbEntity
  8
0
  6
Continuous
 62
     7
100
AcDbLine
 10
-916.409596222377
 20
237.4044574118931
 30
0.0
 11
-916.409596222377
 21
246.8273265084616
 31
0.0
  0
LINE
  5
20C
330
1F
100
AcDbEntity
  8
0
  6
Continuous
 62
     7
100
AcDbLine
 10
-916.409596222377
 20
246.8273265084616
 30
0.0
 11
-916.409596222377
 21
259.85131794803
 31
0.0
  0
LINE
  5
20D
330
1F
100
AcDbEntity
  8
0
  6
Continuous
 62
     7
100
AcDbLine
 10
-892.409596222377
 20
260.40131794803
 30
0.0
 11
-892.409596222377
 21
259.85131794803
 31
0.0
  0
LINE
  5
20E
330
1F
100
AcDbEntity
  8
0
  6
Continuous
 62
     7
100
AcDbLine
 10
-892.159596222377
 20
264.85131794803
 30
0.0
 11
-901.659596222377
 21
264.85131794803
 31
0.0
  0
LINE
  5
20F
330
1F
100
AcDbEntity
  8
0
  6
Continuous
 62
     7
100
AcDbLine
 10
-892.159596222377
 20
264.85131794803
 30
0.0
 11
-891.409596222377
 21
264.85131794803
 31
0.0
  0
LINE
  5
210
330
1F
100
AcDbEntity
  8
0
  6
Continuous
 62
     7
100
AcDbLine
 10
-892.409596222377
 20
259.85131794803
 30
0.0
 11
-892.409596222376
 21
246.8273265084506
 31
0.0
  0
LINE
  5
211
330
1F
100
AcDbEntity
  8
0
  6
Continuous
 62
     7
100
AcDbLine
 10
-892.409596222377
 20
237.4044574118931
 30
0.0
 11
-892.409596222376
 21
246.8273265084506
 31
0.0
  0
LINE
  5
212
102
{ACAD_REACTORS
330
35F
102
}
330
1F
100
AcDbEntity
  8
1
  6
Continuous
 62
     7
100
AcDbLine
 10
-974.9258793649684
 20
262.80131794803
 30
0.0
 11
-972.9095962223769
 21
262.80131794803
 31
0.0
  0
LINE
  5
213
330
1F
100
AcDbEntity
  8
0
  6
Continuous
 62
     7
100
AcDbLine
 10
-972.9095962223769
 20
262.80131794803
 30
0.0
 11
-972.9095962223769
 21
264.35131794803
 31
0.0
  0
LINE
  5
214
102
{ACAD_REACTORS
330
35F
102
}
330
1F
100
AcDbEntity
  8
1
  6
Continuous
 62
     7
100
AcDbLine
 10
-1024.893313079786
 20
262.80131794803
 30
0.0
 11
-1026.909596222377
 21
262.80131794803
 31
0.0
  0
LINE
  5
215
330
1F
100
AcDbEntity
  8
0
  6
Continuous
 62
     7
100
AcDbLine
 10
-1026.909596222377
 20
262.80131794803
 30
0.0
 11
-1026.909596222377
 21
264.35131794803
 31
0.0
  0
LINE
  5
216
330
1F
100
AcDbEntity
  8
0
  6
Continuous
 62
     7
100
AcDbLine
 10
-888.5095962223769
 20
260.85131794803
 30
0.0
 11
-886.909596222377
 21
260.85131794803
 31
0.0
  0
LINE
  5
217
330
1F
100
AcDbEntity
  8
0
  6
Continuous
 62
     7
100
AcDbLine
 10
-920.3095962223769
 20
260.85131794803
 30
0.0
 11
-921.909596222377
 21
260.85131794803
 31
0.0
  0
LINE
  5
218
330
1F
100
AcDbEntity
  8
0
  6
Continuous
 62
     7
100
AcDbLine
 10
-987.8585253948161
 20
264.85131794803
 30
0.0
 11
-1011.960667049938
 21
264.85131794803
 31
0.0
  0
LINE
  5
219
330
1F
100
AcDbEntity
  8
0
  6
Continuous
 62
     7
100
AcDbLine
 10
-907.409596222377
 20
264.35131794803
 30
0.0
 11
-916.909596222377
 21
264.35131794803
 31
0.0
  0
LINE
  5
21A
330
1F
100
AcDbEntity
  8
0
  6
Continuous
 62
     7
100
AcDbLine
 10
-921.909596222377
 20
264.35131794803
 30
0.0
 11
-916.909596222377
 21
264.35131794803
 31
0.0
  0
LINE
  5
21B
330
1F
100
AcDbEntity
  8
0
  6
Continuous
 62
     7
100
AcDbLine
 10
-1009.909596222377
 20
234.95131794803
 30
0.0
 11
-989.9095962223769
 21
234.95131794803
 31
0.0
  0
LINE
  5
21C
330
1F
100
AcDbEntity
  8
0
  6
Continuous
 62
     7
100
AcDbLine
 10
-989.9095962223769
 20
234.95131794803
 30
0.0
 11
-988.6595962223769
 21
234.95131794803
 31
0.0
  0
LINE
  5
21D
330
1F
100
AcDbEntity
  8
1
  6
DASHED
 62
     7
100
AcDbLine
 10
-892.409596222377
 20
291.95131794803
 30
0.0
 11
-892.4095962223763
 21
286.5772289452064
 31
0.0
  0
LINE
  5
21E
330
1F
100
AcDbEntity
  8
1
  6
DOT_CENTER
 62
     7
100
AcDbLine
 10
-904.409596222377
 20
267.85131794803
 30
0.0
 11
-904.409596222377
 21
257.40131794803
 31
0.0
  0
LINE
  5
21F
330
1F
100
AcDbEntity
  8
1
  6
DOT_CENTER
 62
     7
100
AcDbLine
 10
-1021.909596222377
 20
257.40131794803
 30
0.0
 11
-1021.909596222377
 21
267.85131794803
 31
0.0
  0
LINE
  5
220
330
1F
100
AcDbEntity
  8
1
  6
DOT_CENTER
 62
     7
100
AcDbLine
 10
-977.9095962223769
 20
267.85131794803
 30
0.0
 11
-977.909596222377
 21
257.40131794803
 31
0.0
  0
LINE
  5
221
330
1F
100
AcDbEntity
  8
1
  6
DOT_CENTER
 62
     7
100
AcDbLine
 10
-878.5945962223772
 20
375.735548117115
 30
0.0
 11
-886.2245962223769
 21
375.735548117115
 31
0.0
  0
LINE
  5
222
330
1F
100
AcDbEntity
  8
1
  6
DOT_CENTER
 62
     7
100
AcDbLine
 10
-882.409596222377
 20
379.5505481171149
 30
0.0
 11
-882.409596222377
 21
371.9205481171151
 31
0.0
  0
LINE
  5
223
330
1F
100
AcDbEntity
  8
1
  6
DOT_CENTER
 62
     7
100
AcDbLine
 10
-922.5945962223772
 20
375.735548117115
 30
0.0
 11
-930.2245962223769
 21
375.735548117115
 31
0.0
  0
LINE
  5
224
330
1F
100
AcDbEntity
  8
1
  6
DOT_CENTER
 62
     7
100
AcDbLine
 10
-926.409596222377
 20
379.5505481171149
 30
0.0
 11
-926.409596222377
 21
371.9205481171151
 31
0.0
  0
LINE
  5
225
330
1F
100
AcDbEntity
  8
1
  6
Continuous
 62
     7
100
AcDbLine
 10
-917.409596222377
 20
388.735548117115
 30
0.0
 11
-917.409596222377
 21
362.735548117115
 31
0.0
  0
LINE
  5
226
330
1F
100
AcDbEntity
  8
1
  6
Continuous
 62
     7
100
AcDbLine
 10
-917.409596222377
 20
362.735548117115
 30
0.0
 11
-891.409596222377
 21
362.735548117115
 31
0.0
  0
LINE
  5
227
330
1F
100
AcDbEntity
  8
1
  6
Continuous
 62
     7
100
AcDbLine
 10
-891.409596222377
 20
362.735548117115
 30
0.0
 11
-891.409596222377
 21
388.735548117115
 31
0.0
  0
LINE
  5
228
330
1F
100
AcDbEntity
  8
1
  6
Continuous
 62
     7
100
AcDbLine
 10
-891.409596222377
 20
388.735548117115
 30
0.0
 11
-917.409596222377
 21
388.735548117115
 31
0.0
  0
LINE
  5
229
330
1F
100
AcDbEntity
  8
1
  6
DOT_CENTER
 62
     7
100
AcDbLine
 10
-904.409596222377
 20
390.735548117115
 30
0.0
 11
-904.409596222377
 21
360.735548117115
 31
0.0
  0
LINE
  5
22A
330
1F
100
AcDbEntity
  8
1
  6
DOT_CENTER
 62
     7
100
AcDbLine
 10
-889.409596222377
 20
375.735548117115
 30
0.0
 11
-919.409596222377
 21
375.735548117115
 31
0.0
  0
LINE
  5
22B
330
1F
100
AcDbEntity
  8
1
  6
Continuous
 62
     7
100
AcDbLine
 10
-909.4095933430493
 20
321.6077046658806
 30
0.0
 11
-905.4095949491546
 21
325.6077072826756
 31
0.0
  0
ARC
  5
22C
330
1F
100
AcDbEntity
  8
1
  6
DASHED
 62
     7
100
AcDbCircle
 10
-904.409596222377
 20
286.45131794803
 30
0.0
 40
28.44999105574957
100
AcDbArc
 50
349.8778693697499
 51
0.0
  0
ARC
  5
22D
330
1F
100
AcDbEntity
  8
1
  6
DASHED
 62
     7
100
AcDbCircle
 10
-904.409596222377
 20
286.45131794803
 30
0.0
 40
28.44999105574948
100
AcDbArc
 50
0.0
 51
42.352569174501
  0
ARC
  5
22E
330
1F
100
AcDbEntity
  8
1
  6
DASHED
 62
     7
100
AcDbCircle
 10
-904.409596222377
 20
286.45131794803
 30
0.0
 40
28.44999105574968
100
AcDbArc
 50
42.352569174501
 51
51.18181355903754
  0
ARC
  5
22F
330
1F
100
AcDbEntity
  8
0
  6
Continuous
 62
     7
100
AcDbCircle
 10
-888.8635512423224
 20
302.8418374869486
 30
0.0
 40
3.000000000000826
100
AcDbArc
 50
205.1680269694879
 51
249.5932992607362
  0
ARC
  5
230
330
1F
100
AcDbEntity
  8
0
  6
Continuous
 62
     7
100
AcDbCircle
 10
-888.8635512423247
 20
302.841837486949
 30
0.0
 40
3.000000000000338
100
AcDbArc
 50
249.5932992607795
 51
270.0000000002084
  0
ARC
  5
231
330
1F
100
AcDbEntity
  8
0
  6
Continuous
 62
     7
100
AcDbCircle
 10
-888.8635512422751
 20
286.8418374869486
 30
0.0
 40
3.000000000000801
100
AcDbArc
 50
140.0000000001704
 51
155.3402598394259
  0
ARC
  5
232
330
1F
100
AcDbEntity
  8
0
  6
Continuous
 62
     7
100
AcDbCircle
 10
-889.2095962223995
 20
294.2080562730147
 30
0.0
 40
1.999999999999915
100
AcDbArc
 50
320.0000000001746
 51
0.00000000016936
  0
ARC
  5
233
330
1F
100
AcDbEntity
  8
0
  6
Continuous
 62
     7
100
AcDbCircle
 10
-885.209596222416
 20
299.9092221706495
 30
0.0
 40
1.999999999999105
100
AcDbArc
 50
130.0000000001828
 51
180.0000000001693
  0
ARC
  5
234
330
1F
100
AcDbEntity
  8
0
  6
Continuous
 62
     7
100
AcDbCircle
 10
-885.2102935182119
 20
299.9086372389663
 30
0.0
 40
3.199999999999339
100
AcDbArc
 50
129.9837038912295
 51
181.1961318394781
  0
ARC
  5
235
330
1F
100
AcDbEntity
  8
0
  6
Continuous
 62
     7
100
AcDbCircle
 10
-903.4341286636231
 20
300.10770466588
 30
0.0
 40
10.0000000000001
100
AcDbArc
 50
105.4131499541115
 51
133.6196302203657
  0
ARC
  5
236
330
1F
100
AcDbEntity
  8
0
  6
Continuous
 62
     7
100
AcDbCircle
 10
-907.5733343428825
 20
304.4513179480196
 30
0.0
 40
5.50000000000065
100
AcDbArc
 50
74.3743338533903
 51
311.9509821540145
  0
ARC
  5
237
330
1F
100
AcDbEntity
  8
0
  6
Continuous
 62
     7
100
AcDbCircle
 10
-903.4341286636216
 20
300.1077046658809
 30
0.0
 40
9.999999999999883
100
AcDbArc
 50
65.00510925456753
 51
105.4131499541216
  0
ARC
  5
238
330
1F
100
AcDbEntity
  8
0
  6
Continuous
 62
     7
100
AcDbCircle
 10
-904.4095962224133
 20
298.951317948029
 30
0.0
 40
1.500000000000111
100
AcDbArc
 50
70.00195609048626
 51
90.0000000001607
  0
ARC
  5
239
330
1F
100
AcDbEntity
  8
0
  6
Continuous
 62
     7
100
AcDbCircle
 10
-904.4095962224133
 20
298.951317948029
 30
0.0
 40
1.5
100
AcDbArc
 50
0.00000000016936
 51
70.00195609048626
  0
ARC
  5
23A
330
1F
100
AcDbEntity
  8
0
  6
Continuous
 62
     7
100
AcDbCircle
 10
-901.4095962224098
 20
297.7889407785977
 30
0.0
 40
1.0
100
AcDbArc
 50
270.0000000001759
 51
0.0000000002345
  0
ARC
  5
23B
330
1F
100
AcDbEntity
  8
0
  6
Continuous
 62
     7
100
AcDbCircle
 10
-901.8311262743847
 20
305.9342662822475
 30
0.0
 40
1.499999999999793
100
AcDbArc
 50
128.2533209567052
 51
215.0000000001389
  0
ARC
  5
23C
330
1F
100
AcDbEntity
  8
0
  6
Continuous
 62
     7
100
AcDbCircle
 10
-907.5733343428825
 20
304.4513179480196
 30
0.0
 40
5.500000000002014
100
AcDbArc
 50
352.4892126432817
 51
28.93352330407625
  0
ARC
  5
23D
330
1F
100
AcDbEntity
  8
0
  6
Continuous
 62
     7
100
AcDbCircle
 10
-901.8311262743847
 20
305.9342662822475
 30
0.0
 40
1.499999999999859
100
AcDbArc
 50
69.90595659453334
 51
128.2533209567052
  0
ARC
  5
23E
330
1F
100
AcDbEntity
  8
0
  6
Continuous
 62
     7
100
AcDbCircle
 10
-904.409596222377
 20
286.45131794803
 30
0.0
 40
3.0
100
AcDbArc
 50
270.0
 51
315.7799555723171
  0
ARC
  5
23F
330
1F
100
AcDbEntity
  8
0
  6
Continuous
 62
     7
100
AcDbCircle
 10
-904.409596222377
 20
286.45131794803
 30
0.0
 40
2.150000000000091
100
AcDbArc
 50
0.0
 51
270.0
  0
ARC
  5
240
330
1F
100
AcDbEntity
  8
0
  6
Continuous
 62
     7
100
AcDbCircle
 10
-904.409596222377
 20
286.45131794803
 30
0.0
 40
2.249999999999522
100
AcDbArc
 50
55.00000000013047
 51
268.7705285742276
  0
ARC
  5
241
330
1F
100
AcDbEntity
  8
0
  6
Continuous
 62
     7
100
AcDbCircle
 10
-907.5733343428825
 20
304.4513179480196
 30
0.0
 40
4.000000000000705
100
AcDbArc
 50
133.6196302203789
 51
270.0000000002019
  0
ARC
  5
242
330
1F
100
AcDbEntity
  8
0
  6
Continuous
 62
     7
100
AcDbCircle
 10
-903.1313867016255
 20
289.2307602007336
 30
0.0
 40
9.559267692612522
100
AcDbArc
 50
245.3032512601761
 51
296.1728009205814
  0
ARC
  5
243
330
1F
100
AcDbEntity
  8
0
  6
Continuous
 62
     7
100
AcDbCircle
 10
-905.886872060437
 20
294.8408124557718
 30
0.0
 40
15.80999999999983
100
AcDbArc
 50
30.11003042572408
 51
65.01390219451243
  0
ARC
  5
244
330
1F
100
AcDbEntity
  8
0
  6
Continuous
 62
     7
100
AcDbCircle
 10
-902.4095962224181
 20
300.6583432008377
 30
0.0
 40
2.0
100
AcDbArc
 50
0.00000000016936
 51
35.00000000017
  0
ARC
  5
245
330
1F
100
AcDbEntity
  8
0
  6
Continuous
 62
     7
100
AcDbCircle
 10
-905.8890711992645
 20
294.8418374869001
 30
0.0
 40
15.81138830084161
100
AcDbArc
 50
296.1728009205699
 51
328.4864804820158
  0
ARC
  5
246
330
1F
100
AcDbEntity
  8
0
  6
Continuous
 62
     7
100
AcDbCircle
 10
-904.409596222377
 20
286.45131794803
 30
0.0
 40
6.500000000000049
100
AcDbArc
 50
16.69747282632209
 51
245.303251260179
  0
ARC
  5
247
330
1F
100
AcDbEntity
  8
0
  6
Continuous
 62
     7
100
AcDbCircle
 10
-896.2679972886973
 20
288.893523263542
 30
0.0
 40
2.000000000000502
100
AcDbArc
 50
196.697472826332
 51
328.2732032978876
  0
ARC
  5
248
330
1F
100
AcDbEntity
  8
0
  6
Continuous
 62
     7
100
AcDbCircle
 10
-905.8890711992664
 20
294.8418374868984
 30
0.0
 40
15.81138830084238
100
AcDbArc
 50
25.16802696949176
 51
30.10281946665677
  0
ARC
  5
249
330
1F
100
AcDbEntity
  8
0
  6
Continuous
 62
     7
100
AcDbCircle
 10
-905.8890711992664
 20
294.8418374868984
 30
0.0
 40
15.81138830084222
100
AcDbArc
 50
333.9312072320723
 51
334.7352942790351
  0
ARC
  5
24A
330
1F
100
AcDbEntity
  8
0
  6
Continuous
 62
     7
100
AcDbCircle
 10
-905.8890711992664
 20
294.8418374868984
 30
0.0
 40
15.81138830084232
100
AcDbArc
 50
328.4864804820245
 51
333.9312072320723
  0
ARC
  5
24B
330
1F
100
AcDbEntity
  8
0
  6
Continuous
 62
     7
100
AcDbCircle
 10
-905.8890711992664
 20
294.8418374868984
 30
0.0
 40
13.31138830084157
100
AcDbArc
 50
329.5385875934455
 51
336.3101940793049
  0
ARC
  5
24C
330
1F
100
AcDbEntity
  8
0
  6
Continuous
 62
     7
100
AcDbCircle
 10
-905.8890711992664
 20
294.8418374868984
 30
0.0
 40
13.31138830084166
100
AcDbArc
 50
328.5346596170978
 51
329.5385875934455
  0
ARC
  5
24D
330
1F
100
AcDbEntity
  8
0
  6
Continuous
 62
     7
100
AcDbCircle
 10
-905.8890711992375
 20
294.8418374869453
 30
0.0
 40
13.31138830084126
100
AcDbArc
 50
328.2732032976408
 51
328.5346596168608
  0
ARC
  5
24E
330
1F
100
AcDbEntity
  8
0
  6
Continuous
 62
     7
100
AcDbCircle
 10
-905.8890711992664
 20
294.8418374868984
 30
0.0
 40
13.31138830084171
100
AcDbArc
 50
336.3101940793049
 51
69.90595659450864
  0
ARC
  5
24F
330
1F
100
AcDbEntity
  8
0
  6
Continuous
 62
     7
100
AcDbCircle
 10
-1014.809596222463
 20
287.8935232634694
 30
0.0
 40
0.2000000000859927
100
AcDbArc
 50
0.00000002467093
 51
89.99999997534536
  0
ARC
  5
250
330
1F
100
AcDbEntity
  8
0
  6
Continuous
 62
     7
100
AcDbCircle
 10
-1014.809596222464
 20
289.4935232634707
 30
0.0
 40
0.1999999999129614
100
AcDbArc
 50
179.9999999747266
 51
270.0000000249478
  0
ARC
  5
251
330
1F
100
AcDbEntity
  8
0
  6
Continuous
 62
     7
100
AcDbCircle
 10
-1014.809596222389
 20
287.8935232635549
 30
0.0
 40
1.400000000012028
100
AcDbArc
 50
0.00000000002326
 51
8.21321070170482
  0
ARC
  5
252
330
1F
100
AcDbEntity
  8
0
  6
Continuous
 62
     7
100
AcDbCircle
 10
-1014.809596222446
 20
287.8935232634163
 30
0.0
 40
1.400000000142453
100
AcDbArc
 50
38.77016384482618
 51
89.99999999717582
  0
ARC
  5
253
330
1F
100
AcDbEntity
  8
0
  6
Continuous
 62
     7
100
AcDbCircle
 10
-1014.809596222422
 20
289.4935232635445
 30
0.0
 40
1.399999999954957
100
AcDbArc
 50
179.9999999994091
 51
211.1084260741383
  0
ARC
  5
254
330
1F
100
AcDbEntity
  8
0
  6
Continuous
 62
     7
100
AcDbCircle
 10
-1014.809596222441
 20
287.8935232635297
 30
0.0
 40
1.400000000066963
100
AcDbArc
 50
8.21321070242337
 51
38.7701638413359
  0
ARC
  5
255
330
1F
100
AcDbEntity
  8
0
  6
Continuous
 62
     7
100
AcDbCircle
 10
-1014.80959622245
 20
289.4935232634245
 30
0.0
 40
1.399999999868943
100
AcDbArc
 50
211.108426070525
 51
270.000000002987
  0
ARC
  5
256
330
1F
100
AcDbEntity
  8
0
  6
Continuous
 62
     7
100
AcDbCircle
 10
-985.0095962222904
 20
287.8935232634694
 30
0.0
 40
0.2000000000864475
100
AcDbArc
 50
90.00000002475234
 51
179.9999999753291
  0
ARC
  5
257
330
1F
100
AcDbEntity
  8
0
  6
Continuous
 62
     7
100
AcDbCircle
 10
-985.0095962222891
 20
289.4935232634707
 30
0.0
 40
0.1999999999122792
100
AcDbArc
 50
269.9999999748894
 51
0.00000002527345
  0
ARC
  5
258
330
1F
100
AcDbEntity
  8
0
  6
Continuous
 62
     7
100
AcDbCircle
 10
-985.0095962223319
 20
289.4935232635445
 30
0.0
 40
1.39999999995508
100
AcDbArc
 50
328.8915739258665
 51
0.00000000059089
  0
ARC
  5
259
330
1F
100
AcDbEntity
  8
0
  6
Continuous
 62
     7
100
AcDbCircle
 10
-985.0095962223077
 20
287.8935232634163
 30
0.0
 40
1.400000000142143
100
AcDbArc
 50
90.00000000282886
 51
141.2298361551622
  0
ARC
  5
25A
330
1F
100
AcDbEntity
  8
0
  6
Continuous
 62
     7
100
AcDbCircle
 10
-985.0095962223644
 20
287.8935232635549
 30
0.0
 40
1.400000000012386
100
AcDbArc
 50
171.7867892982978
 51
179.9999999999768
  0
ARC
  5
25B
330
1F
100
AcDbEntity
  8
0
  6
Continuous
 62
     7
100
AcDbCircle
 10
-985.009596222313
 20
287.8935232635297
 30
0.0
 40
1.40000000006692
100
AcDbArc
 50
141.2298361586437
 51
171.786789297576
  0
ARC
  5
25C
330
1F
100
AcDbEntity
  8
0
  6
Continuous
 62
     7
100
AcDbCircle
 10
-985.0095962223035
 20
289.4935232634245
 30
0.0
 40
1.399999999868669
100
AcDbArc
 50
269.999999996999
 51
328.8915739294702
  0
ARC
  5
25D
330
1F
100
AcDbEntity
  8
0
  6
Continuous
 62
     7
100
AcDbCircle
 10
-1011.960667049938
 20
368.235548117115
 30
0.0
 40
9.99999999999964
100
AcDbArc
 50
210.0000000000012
 51
270.0
  0
ARC
  5
25E
102
{ACAD_REACTORS
330
361
102
}
330
1F
100
AcDbEntity
  8
0
  6
Continuous
 62
     7
100
AcDbCircle
 10
-1011.787461969181
 20
368.235548117115
 30
0.0
 40
8.39999999999974
100
AcDbArc
 50
210.0000000000009
 51
270.0
  0
ARC
  5
25F
102
{ACAD_REACTORS
330
361
102
}
330
1F
100
AcDbEntity
  8
0
  6
Continuous
 62
     7
100
AcDbCircle
 10
-1011.909596222377
 20
368.6855481171151
 30
0.0
 40
5.000000000000451
100
AcDbArc
 50
201.7156172832634
 51
270.0
  0
ARC
  5
260
330
1F
100
AcDbEntity
  8
0
  6
Continuous
 62
     7
100
AcDbCircle
 10
-1011.960667049938
 20
368.235548117115
 30
0.0
 40
8.500000000000206
100
AcDbArc
 50
209.9999999999992
 51
270.0
  0
ARC
  5
261
330
1F
100
AcDbEntity
  8
0
  6
Continuous
 62
     7
100
AcDbCircle
 10
-1011.809596222377
 20
368.735548117115
 30
0.0
 40
5.000000000000099
100
AcDbArc
 50
202.3336826578046
 51
270.0
  0
ARC
  5
262
330
1F
100
AcDbEntity
  8
0
  6
Continuous
 62
     7
100
AcDbCircle
 10
-1008.709596222377
 20
366.9355481171151
 30
0.0
 40
3.200000000000045
100
AcDbArc
 50
180.0
 51
269.9999999778694
  0
ARC
  5
263
330
1F
100
AcDbEntity
  8
0
  6
Continuous
 62
     7
100
AcDbCircle
 10
-1011.809596222377
 20
368.735548117115
 30
0.0
 40
5.0
100
AcDbArc
 50
180.0
 51
202.3336826578046
  0
ARC
  5
264
102
{ACAD_REACTORS
330
361
102
}
330
1F
100
AcDbEntity
  8
0
  6
Continuous
 62
     7
100
AcDbCircle
 10
-1011.909596222377
 20
368.6855481171151
 30
0.0
 40
5.0
100
AcDbArc
 50
180.0
 51
201.7156172832634
  0
ARC
  5
265
330
1F
100
AcDbEntity
  8
0
  6
Continuous
 62
     7
100
AcDbCircle
 10
-1023.738612541406
 20
369.6355481171151
 30
0.0
 40
0.9999999999996882
100
AcDbArc
 50
30.00000000001031
 51
90.0
  0
ARC
  5
266
102
{ACAD_REACTORS
330
361
102
}
330
1F
100
AcDbEntity
  8
0
  6
Continuous
 62
     7
100
AcDbCircle
 10
-975.1568194726442
 20
371.235548117115
 30
0.0
 40
0.5
100
AcDbArc
 50
270.0
 51
329.9999999999962
  0
ARC
  5
267
102
{ACAD_REACTORS
330
361
102
}
330
1F
100
AcDbEntity
  8
0
  6
Continuous
 62
     7
100
AcDbCircle
 10
-988.031730475573
 20
368.235548117115
 30
0.0
 40
8.399999999999977
100
AcDbArc
 50
270.0
 51
330.0000000000002
  0
ARC
  5
268
330
1F
100
AcDbEntity
  8
0
  6
Continuous
 62
     7
100
AcDbCircle
 10
-988.0095962223769
 20
368.735548117115
 30
0.0
 40
5.0
100
AcDbArc
 50
270.0
 51
337.6663173421949
  0
ARC
  5
269
330
1F
100
AcDbEntity
  8
0
  6
Continuous
 62
     7
100
AcDbCircle
 10
-991.1095962223768
 20
366.9355481171151
 30
0.0
 40
3.200000000000102
100
AcDbArc
 50
270.0
 51
359.999999999998
  0
ARC
  5
26A
330
1F
100
AcDbEntity
  8
0
  6
Continuous
 62
     7
100
AcDbCircle
 10
-976.0805799033477
 20
369.6355481171151
 30
0.0
 40
1.0
100
AcDbArc
 50
90.0
 51
149.9999999999995
  0
ARC
  5
26B
102
{ACAD_REACTORS
330
361
102
}
330
1F
100
AcDbEntity
  8
0
  6
Continuous
 62
     7
100
AcDbCircle
 10
-987.9095962223769
 20
368.6855481171151
 30
0.0
 40
5.000000000000028
100
AcDbArc
 50
338.2843827167347
 51
0.0
  0
ARC
  5
26C
330
1F
100
AcDbEntity
  8
0
  6
Continuous
 62
     7
100
AcDbCircle
 10
-988.0095962223769
 20
368.735548117115
 30
0.0
 40
4.999999999999994
100
AcDbArc
 50
337.6663173421949
 51
0.0
  0
ARC
  5
26D
102
{ACAD_REACTORS
330
361
102
}
330
1F
100
AcDbEntity
  8
0
  6
Continuous
 62
     7
100
AcDbCircle
 10
-976.6001951456184
 20
370.235548117115
 30
0.0
 40
0.5
100
AcDbArc
 50
90.0
 51
150.0000000000027
  0
ARC
  5
26E
102
{ACAD_REACTORS
330
361
102
}
330
1F
100
AcDbEntity
  8
0
  6
Continuous
 62
     7
100
AcDbCircle
 10
-987.9095962223769
 20
368.6855481171151
 30
0.0
 40
5.0
100
AcDbArc
 50
270.0
 51
338.2843827167347
  0
ARC
  5
26F
330
1F
100
AcDbEntity
  8
0
  6
Continuous
 62
     7
100
AcDbCircle
 10
-1011.960667049938
 20
383.2355481171149
 30
0.0
 40
10.0
100
AcDbArc
 50
90.0
 51
149.9999999999988
  0
ARC
  5
270
330
1F
100
AcDbEntity
  8
0
  6
Continuous
 62
     7
100
AcDbCircle
 10
-987.8585253948161
 20
383.2355481171149
 30
0.0
 40
9.999999999999934
100
AcDbArc
 50
30.00000000000022
 51
90.0
  0
ARC
  5
271
330
1F
100
AcDbEntity
  8
0
  6
Continuous
 62
     7
100
AcDbCircle
 10
-991.1095962223768
 20
384.535548117115
 30
0.0
 40
3.199999999999932
100
AcDbArc
 50
359.9999999998992
 51
89.99999997782874
  0
ARC
  5
272
102
{ACAD_REACTORS
330
361
102
}
330
1F
100
AcDbEntity
  8
0
  6
Continuous
 62
     7
100
AcDbCircle
 10
-988.0317304755729
 20
383.2355481171149
 30
0.0
 40
8.400000000000048
100
AcDbArc
 50
30.00000000000151
 51
90.0
  0
ARC
  5
273
330
1F
100
AcDbEntity
  8
0
  6
Continuous
 62
     7
100
AcDbCircle
 10
-987.8585253948161
 20
383.2355481171149
 30
0.0
 40
8.500000000000009
100
AcDbArc
 50
29.99999999999997
 51
90.0
  0
ARC
  5
274
102
{ACAD_REACTORS
330
361
102
}
330
1F
100
AcDbEntity
  8
0
  6
Continuous
 62
     7
100
AcDbCircle
 10
-978.9095962223769
 20
375.735548117115
 30
0.0
 40
6.0
100
AcDbArc
 50
0.0
 51
30.00000000000054
  0
ARC
  5
275
102
{ACAD_REACTORS
330
361
102
}
330
1F
100
AcDbEntity
  8
0
  6
Continuous
 62
     7
100
AcDbCircle
 10
-987.9095962223769
 20
382.785548117115
 30
0.0
 40
4.999999999999987
100
AcDbArc
 50
21.71561728326409
 51
90.0
  0
ARC
  5
276
330
1F
100
AcDbEntity
  8
0
  6
Continuous
 62
     7
100
AcDbCircle
 10
-988.0095962223769
 20
382.7355481171149
 30
0.0
 40
5.000000000000037
100
AcDbArc
 50
22.33368265780626
 51
90.0
  0
ARC
  5
277
330
1F
100
AcDbEntity
  8
0
  6
Continuous
 62
     7
100
AcDbCircle
 10
-976.0805799033477
 20
381.835548117115
 30
0.0
 40
0.9999999999999836
100
AcDbArc
 50
210.0000000000005
 51
270.0
  0
ARC
  5
278
102
{ACAD_REACTORS
330
361
102
}
330
1F
100
AcDbEntity
  8
0
  6
Continuous
 62
     7
100
AcDbCircle
 10
-987.9095962223769
 20
382.785548117115
 30
0.0
 40
5.0
100
AcDbArc
 50
0.0
 51
21.71561728326409
  0
ARC
  5
279
330
1F
100
AcDbEntity
  8
0
  6
Continuous
 62
     7
100
AcDbCircle
 10
-988.0095962223769
 20
382.7355481171149
 30
0.0
 40
5.0
100
AcDbArc
 50
0.0
 51
22.33368265780626
  0
ARC
  5
27A
102
{ACAD_REACTORS
330
361
102
}
330
1F
100
AcDbEntity
  8
0
  6
Continuous
 62
     7
100
AcDbCircle
 10
-976.6001951456184
 20
381.2355481171149
 30
0.0
 40
0.500000000000041
100
AcDbArc
 50
209.9999999999972
 51
270.0
  0
ARC
  5
27B
102
{ACAD_REACTORS
330
361
102
}
330
1F
100
AcDbEntity
  8
0
  6
Continuous
 62
     7
100
AcDbCircle
 10
-975.1568194726442
 20
380.235548117115
 30
0.0
 40
0.4999999999997873
100
AcDbArc
 50
29.99999999999903
 51
90.0
  0
ARC
  5
27C
102
{ACAD_REACTORS
330
361
102
}
330
1F
100
AcDbEntity
  8
0
  6
Continuous
 62
     7
100
AcDbCircle
 10
-1020.909596222377
 20
375.735548117115
 30
0.0
 40
6.000000000000114
100
AcDbArc
 50
180.0
 51
210.0000000000032
  0
ARC
  5
27D
102
{ACAD_REACTORS
330
361
102
}
330
1F
100
AcDbEntity
  8
0
  6
Continuous
 62
     7
100
AcDbCircle
 10
-1023.218997299135
 20
370.235548117115
 30
0.0
 40
0.4999999999998441
100
AcDbArc
 50
30.00000000001031
 51
90.0
  0
ARC
  5
27E
102
{ACAD_REACTORS
330
361
102
}
330
1F
100
AcDbEntity
  8
0
  6
Continuous
 62
     7
100
AcDbCircle
 10
-1024.662372972109
 20
371.235548117115
 30
0.0
 40
0.5000000000006317
100
AcDbArc
 50
209.9999999999582
 51
270.0
  0
ARC
  5
27F
330
1F
100
AcDbEntity
  8
0
  6
Continuous
 62
     7
100
AcDbCircle
 10
-987.8585253948161
 20
368.235548117115
 30
0.0
 40
10.0
100
AcDbArc
 50
270.0
 51
329.9999999999998
  0
ARC
  5
280
330
1F
100
AcDbEntity
  8
0
  6
Continuous
 62
     7
100
AcDbCircle
 10
-987.8585253948161
 20
368.235548117115
 30
0.0
 40
8.5
100
AcDbArc
 50
270.0
 51
330.0
  0
ARC
  5
281
330
1F
100
AcDbEntity
  8
0
  6
Continuous
 62
     7
100
AcDbCircle
 10
-1011.960667049938
 20
383.2355481171149
 30
0.0
 40
8.5
100
AcDbArc
 50
90.0
 51
150.0000000000008
  0
ARC
  5
282
102
{ACAD_REACTORS
330
361
102
}
330
1F
100
AcDbEntity
  8
0
  6
Continuous
 62
     7
100
AcDbCircle
 10
-1011.909596222377
 20
382.785548117115
 30
0.0
 40
5.0
100
AcDbArc
 50
90.0
 51
158.2843827167378
  0
ARC
  5
283
330
1F
100
AcDbEntity
  8
0
  6
Continuous
 62
     7
100
AcDbCircle
 10
-1011.809596222377
 20
382.7355481171149
 30
0.0
 40
5.0
100
AcDbArc
 50
90.0
 51
157.6663173421942
  0
ARC
  5
284
330
1F
100
AcDbEntity
  8
0
  6
Continuous
 62
     7
100
AcDbCircle
 10
-1008.709596222377
 20
384.535548117115
 30
0.0
 40
3.199999999999875
100
AcDbArc
 50
90.0
 51
180.0000000000377
  0
ARC
  5
285
102
{ACAD_REACTORS
330
361
102
}
330
1F
100
AcDbEntity
  8
0
  6
Continuous
 62
     7
100
AcDbCircle
 10
-1011.909596222377
 20
382.785548117115
 30
0.0
 40
5.000000000000409
100
AcDbArc
 50
158.2843827167378
 51
180.0
  0
ARC
  5
286
330
1F
100
AcDbEntity
  8
0
  6
Continuous
 62
     7
100
AcDbCircle
 10
-1011.809596222377
 20
382.7355481171149
 30
0.0
 40
5.000000000000142
100
AcDbArc
 50
157.6663173421942
 51
180.0
  0
ARC
  5
287
102
{ACAD_REACTORS
330
361
102
}
330
1F
100
AcDbEntity
  8
0
  6
Continuous
 62
     7
100
AcDbCircle
 10
-1023.218997299135
 20
381.2355481171149
 30
0.0
 40
0.5
100
AcDbArc
 50
270.0
 51
329.9999999999897
  0
ARC
  5
288
330
1F
100
AcDbEntity
  8
0
  6
Continuous
 62
     7
100
AcDbCircle
 10
-1023.738612541406
 20
381.835548117115
 30
0.0
 40
1.0
100
AcDbArc
 50
270.0
 51
329.9999999999897
  0
ARC
  5
289
102
{ACAD_REACTORS
330
361
102
}
330
1F
100
AcDbEntity
  8
0
  6
Continuous
 62
     7
100
AcDbCircle
 10
-1011.787461969181
 20
383.2355481171149
 30
0.0
 40
8.400000000000091
100
AcDbArc
 50
90.0
 51
149.9999999999977
  0
ARC
  5
28A
102
{ACAD_REACTORS
330
361
102
}
330
1F
100
AcDbEntity
  8
0
  6
Continuous
 62
     7
100
AcDbCircle
 10
-1024.662372972109
 20
380.235548117115
 30
0.0
 40
0.4999999999998863
100
AcDbArc
 50
90.0
 51
150.0000000000531
  0
ARC
  5
28B
330
1F
100
AcDbEntity
  8
0
  6
Continuous
 62
     7
100
AcDbCircle
 10
-973.4095962223769
 20
264.35131794803
 30
0.0
 40
0.5
100
AcDbArc
 50
0.0
 51
90.0
  0
ARC
  5
28C
330
1F
100
AcDbEntity
  8
0
  6
Continuous
 62
     7
100
AcDbCircle
 10
-1012.909596222377
 20
265.85131794803
 30
0.0
 40
1.0
100
AcDbArc
 50
270.0
 51
0.0
  0
ARC
  5
28D
330
1F
100
AcDbEntity
  8
0
  6
Continuous
 62
     7
100
AcDbCircle
 10
-1012.909596222377
 20
259.85131794803
 30
0.0
 40
1.0
100
AcDbArc
 50
0.0
 51
33.36701296924709
  0
ARC
  5
28E
330
1F
100
AcDbEntity
  8
0
  6
Continuous
 62
     7
100
AcDbCircle
 10
-986.9095962223769
 20
265.85131794803
 30
0.0
 40
1.0
100
AcDbArc
 50
180.0
 51
270.0
  0
ARC
  5
28F
330
1F
100
AcDbEntity
  8
0
  6
Continuous
 62
     7
100
AcDbCircle
 10
-1026.409596222377
 20
264.35131794803
 30
0.0
 40
0.5
100
AcDbArc
 50
90.0
 51
180.0
  0
ARC
  5
290
330
1F
100
AcDbEntity
  8
0
  6
Continuous
 62
     7
100
AcDbCircle
 10
-986.9095962223769
 20
259.85131794803
 30
0.0
 40
0.999999999999994
100
AcDbArc
 50
146.6329870307673
 51
180.0
  0
ARC
  5
291
330
1F
100
AcDbEntity
  8
0
  6
Continuous
 62
     7
100
AcDbCircle
 10
-904.409596222377
 20
286.45131794803
 30
0.0
 40
2.150000000000091
100
AcDbArc
 50
0.0
 51
270.0
  0
ARC
  5
292
330
1F
100
AcDbEntity
  8
0
  6
Continuous
 62
     7
100
AcDbCircle
 10
-904.409596222377
 20
286.45131794803
 30
0.0
 40
3.0
100
AcDbArc
 50
270.0
 51
315.7799555723171
  0
ARC
  5
293
330
1F
100
AcDbEntity
  8
0
  6
Continuous
 62
     7
100
AcDbCircle
 10
-887.409596222377
 20
264.35131794803
 30
0.0
 40
0.5
100
AcDbArc
 50
0.0
 51
90.0
  0
ARC
  5
294
330
1F
100
AcDbEntity
  8
0
  6
Continuous
 62
     7
100
AcDbCircle
 10
-921.409596222377
 20
264.35131794803
 30
0.0
 40
0.5
100
AcDbArc
 50
90.0
 51
180.0
  0
ARC
  5
295
330
1F
100
AcDbEntity
  8
0
  6
Continuous
 62
     7
100
AcDbCircle
 10
-917.409596222377
 20
265.85131794803
 30
0.0
 40
1.0
100
AcDbArc
 50
270.0
 51
0.0
  0
ARC
  5
296
330
1F
100
AcDbEntity
  8
0
  6
Continuous
 62
     7
100
AcDbCircle
 10
-891.409596222377
 20
265.85131794803
 30
0.0
 40
1.0
100
AcDbArc
 50
180.0
 51
270.0
  0
ARC
  5
297
102
{ACAD_REACTORS
330
361
102
}
330
1F
100
AcDbEntity
  8
0
  6
Continuous
 62
     7
100
AcDbCircle
 10
-1020.909596222377
 20
375.735548117115
 30
0.0
 40
5.999999999999409
100
AcDbArc
 50
149.9999999999968
 51
180.0
  0
ARC
  5
298
102
{ACAD_REACTORS
330
361
102
}
330
1F
100
AcDbEntity
  8
0
  6
Continuous
 62
     7
100
AcDbCircle
 10
-978.9095962223769
 20
375.735548117115
 30
0.0
 40
6.0
100
AcDbArc
 50
330.0
 51
0.0
  0
CIRCLE
  5
299
330
1F
100
AcDbEntity
  8
0
  6
Continuous
 62
     7
100
AcDbCircle
 10
-907.5733343428825
 20
304.4513179480196
 30
0.0
 40
1.750000000002046
  0
CIRCLE
  5
29A
330
1F
100
AcDbEntity
  8
0
  6
Continuous
 62
     7
100
AcDbCircle
 10
-999.9095962223769
 20
375.735548117115
 30
0.0
 40
11.25000000000025
  0
CIRCLE
  5
29B
330
1F
100
AcDbEntity
  8
0
  6
Continuous
 62
     7
100
AcDbCircle
 10
-999.9095962223769
 20
375.735548117115
 30
0.0
 40
8.0
  0
CIRCLE
  5
29C
330
1F
100
AcDbEntity
  8
0
  6
Continuous
 62
     7
100
AcDbCircle
 10
-999.9095962223769
 20
375.735548117115
 30
0.0
 40
9.299999999998363
  0
CIRCLE
  5
29D
102
{ACAD_REACTORS
330
361
102
}
330
1F
100
AcDbEntity
  8
0
  6
Continuous
 62
     7
100
AcDbCircle
 10
-977.9095962223769
 20
375.735548117115
 30
0.0
 40
1.649999999999977
  0
CIRCLE
  5
29E
102
{ACAD_REACTORS
330
361
102
}
330
1F
100
AcDbEntity
  8
0
  6
Continuous
 62
     7
100
AcDbCircle
 10
-1021.909596222377
 20
375.735548117115
 30
0.0
 40
1.649999999999977
  0
CIRCLE
  5
29F
330
1F
100
AcDbEntity
  8
0
  6
Continuous
 62
     7
100
AcDbCircle
 10
-999.9095962223769
 20
280.95131794803
 30
0.0
 40
3.5
  0
CIRCLE
  5
2A0
330
1F
100
AcDbEntity
  8
0
  6
Continuous
 62
     7
100
AcDbCircle
 10
-999.9095962223769
 20
280.95131794803
 30
0.0
 40
1.600000000000136
  0
CIRCLE
  5
2A1
330
1F
100
AcDbEntity
  8
0
  6
Continuous
 62
     7
100
AcDbCircle
 10
-999.9095962223769
 20
375.735548117115
 30
0.0
 40
10.30000000000007
  0
CIRCLE
  5
2A2
330
1F
100
AcDbEntity
  8
0
  6
Continuous
 62
     7
100
AcDbCircle
 10
-926.409596222377
 20
375.735548117115
 30
0.0
 40
1.649999999999864
  0
CIRCLE
  5
2A3
330
1F
100
AcDbEntity
  8
0
  6
Continuous
 62
     7
100
AcDbCircle
 10
-882.409596222377
 20
375.735548117115
 30
0.0
 40
1.649999999999864
  0
SPLINE
  5
2A4
330
1F
100
AcDbEntity
  8
0
  6
Continuous
 62
     7
100
AcDbSpline
210
0.0
220
0.0
230
1.0
 70
     8
 71
     3
 72
    27
 73
    23
 74
    21
 42
0.000000001
 43
0.0000000001
 44
0.00000001
 40
0.0
 40
0.0
 40
0.0
 40
0.0
 40
0.6312254330077884
 40
1.203929155063061
 40
1.526160701023807
 40
1.798842991786011
 40
2.085460673656907
 40
2.383118466129341
 40
2.741937494750966
 40
3.046802069222666
 40
3.161209917862419
 40
3.276147800320401
 40
3.387930279889753
 40
3.484555853666991
 40
3.657680628988145
 40
3.860894029022183
 40
4.093733972970599
 40
4.373782913902025
 40
4.798931889598589
 40
5.331242856500841
 40
5.815817105926055
 40
6.372782282453525
 40
6.372782282453525
 40
6.372782282453525
 40
6.372782282453525
 10
-895.6095962161997
 20
246.8273265204129
 30
0.0
 10
-895.5107489125626
 20
247.0131118891896
 30
0.0
 10
-895.3222185534097
 20
247.367458223506
 30
0.0
 10
-895.0561989655964
 20
247.8015094289135
 30
0.0
 10
-894.8377841424522
 20
248.1237429797192
 30
0.0
 10
-894.6632885780926
 20
248.3602629790736
 30
0.0
 10
-894.4835581139926
 20
248.5824443695857
 30
0.0
 10
-894.271588715065
 20
248.8149117293018
 30
0.0
 10
-894.0351669154741
 20
249.0321779508089
 30
0.0
 10
-893.8203616319289
 20
249.1801450975288
 30
0.0
 10
-893.6601583212284
 20
249.2584421068978
 30
0.0
 10
-893.553168398483
 20
249.2976690262343
 30
0.0
 10
-893.4476782192863
 20
249.3216130923623
 30
0.0
 10
-893.3205445612562
 20
249.3315612344368
 30
0.0
 10
-893.1618042753744
 20
249.3084670197613
 30
0.0
 10
-892.9796000694674
 20
249.2090917152456
 30
0.0
 10
-892.8166036686716
 20
249.0302437181538
 30
0.0
 10
-892.666443606102
 20
248.7536786554165
 30
0.0
 10
-892.5416320024912
 20
248.3582604188034
 30
0.0
 10
-892.4614304773963
 20
247.8834196479405
 30
0.0
 10
-892.4165546964857
 20
247.3602645628145
 30
0.0
 10
-892.4120207526457
 20
247.0130175206644
 30
0.0
 10
-892.409596222376
 20
246.8273265084506
 30
0.0
 11
-895.6095962161997
 21
246.8273265204129
 31
0.0
 11
-895.3071929273798
 21
247.3814003466065
 31
0.0
 11
-895.007865844041
 21
247.8696552508416
 31
0.0
 11
-894.8266155211334
 21
248.1360787669848
 31
0.0
 11
-894.664480299961
 21
248.3553224714854
 31
0.0
 11
-894.4837605300786
 21
248.577786087788
 31
0.0
 11
-894.2824781635419
 21
248.7970703111693
 31
0.0
 11
-894.0160513723044
 21
249.0374197665093
 31
0.0
 11
-893.7625022595219
 21
249.2066984024702
 31
0.0
 11
-893.6595326829661
 21
249.2565624396529
 31
0.0
 11
-893.5514439793802
 21
249.2956463117735
 31
0.0
 11
-893.4423152976558
 21
249.3198589871167
 31
0.0
 11
-893.3459520422268
 21
249.3269740822797
 31
0.0
 11
-893.174812229747
 21
249.3008330675962
 31
0.0
 11
-892.9952309298995
 21
249.2057213280635
 31
0.0
 11
-892.8344881486146
 21
249.0372689666787
 31
0.0
 11
-892.6962573039394
 21
248.793712724329
 31
0.0
 11
-892.560980606291
 21
248.3906595428969
 31
0.0
 11
-892.4663279080337
 21
247.8668314864328
 31
0.0
 11
-892.4240656627592
 21
247.384103709788
 31
0.0
 11
-892.409596222376
 21
246.8273265084506
 31
0.0
  0
SPLINE
  5
2A5
330
1F
100
AcDbEntity
  8
0
  6
Continuous
 62
     7
100
AcDbSpline
210
0.0
220
0.0
230
1.0
 70
     8
 71
     3
 72
    27
 73
    23
 74
    21
 42
0.000000001
 43
0.0000000001
 44
0.00000001
 40
0.0
 40
0.0
 40
0.0
 40
0.0
 40
0.520775792396576
 40
1.042775375027674
 40
1.302583308906472
 40
1.538097939253041
 40
1.771853275099647
 40
2.002453511532039
 40
2.258793552101847
 40
2.513215518883638
 40
2.688203959710459
 40
2.89003480603378
 40
2.995368244945257
 40
3.098717280226773
 40
3.204519871413482
 40
3.328301871880821
 40
3.665422699695125
 40
3.994767141670312
 40
4.536030439628366
 40
5.171911036997843
 40
5.697118964597314
 40
6.372909714008577
 40
6.372909714008577
 40
6.372909714008577
 40
6.372909714008577
 10
-916.409596222377
 20
246.8273265084616
 30
0.0
 10
-916.4074454767018
 20
247.0009341840807
 30
0.0
 10
-916.4031389218258
 20
247.3485575021579
 30
0.0
 10
-916.3672105182848
 20
247.7817970645254
 30
0.0
 10
-916.3179363509861
 20
248.1174221737421
 30
0.0
 10
-916.2694391680658
 20
248.3557051955763
 30
0.0
 10
-916.2076932885453
 20
248.580909741798
 30
0.0
 10
-916.1232831245649
 20
248.8063005110819
 30
0.0
 10
-916.005744474279
 20
249.0248998621973
 30
0.0
 10
-915.85153068267
 20
249.1988683394092
 30
0.0
 10
-915.6663392029259
 20
249.3053099517315
 30
0.0
 10
-915.503959321933
 20
249.332937476407
 30
0.0
 10
-915.3672389292345
 20
249.3208865923119
 30
0.0
 10
-915.2648600856878
 20
249.2969428974947
 30
0.0
 10
-915.1603370800431
 20
249.2590384088972
 30
0.0
 10
-914.9901881940889
 20
249.1762559162905
 30
0.0
 10
-914.773545577754
 20
249.0233213899278
 30
0.0
 10
-914.4782181759558
 20
248.7490124051861
 30
0.0
 10
-914.151279940884
 20
248.3661597075119
 30
0.0
 10
-913.8250998487424
 20
247.9012163127092
 30
0.0
 10
-913.5038931839445
 20
247.3795454387929
 30
0.0
 10
-913.3155661060932
 20
247.0261684474249
 30
0.0
 10
-913.2095962223768
 20
246.8273265084648
 30
0.0
 11
-916.409596222377
 21
246.8273265084616
 31
0.0
 11
-916.3970443949111
 21
247.3479510235981
 31
0.0
 11
-916.3527108308623
 21
247.8680645688568
 31
0.0
 11
-916.3142953937454
 21
248.1250167372065
 31
0.0
 11
-916.266756495954
 21
248.3556835844368
 31
0.0
 11
-916.2040144052463
 21
248.5808612636401
 31
0.0
 11
-916.1217744656849
 21
248.7962981721027
 31
0.0
 11
-915.9969057643129
 21
249.0201687241106
 31
0.0
 11
-915.8233425190278
 21
249.2061965107789
 31
0.0
 11
-915.6706870364519
 21
249.291737485056
 31
0.0
 11
-915.4719559751335
 21
249.326974626176
 31
0.0
 11
-915.366976946782
 21
249.3183411425147
 31
0.0
 11
-915.266251163691
 21
249.2952037315679
 31
0.0
 11
-915.166649784335
 21
249.2595140467933
 31
0.0
 11
-915.0551090627141
 21
249.2058423490178
 31
0.0
 11
-914.7764637227153
 21
249.0160866441
 31
0.0
 11
-914.533466539571
 21
248.7937802545457
 31
0.0
 11
-914.1781389237008
 21
248.3854810455974
 31
0.0
 11
-913.8097240310678
 21
247.867200617483
 31
0.0
 11
-913.5343721375049
 21
247.419959404234
 31
0.0
 11
-913.2095962223768
 21
246.8273265084648
 31
0.0
  0
SPLINE
  5
2A6
330
1F
100
AcDbEntity
  8
0
  6
Continuous
 62
     7
100
AcDbSpline
210
0.0
220
0.0
230
1.0
 70
     8
 71
     3
 72
    23
 73
    19
 74
    17
 42
0.000000001
 43
0.0000000001
 44
0.00000001
 40
0.0
 40
0.0
 40
0.0
 40
0.0
 40
2.424171176068877
 40
4.56998097950847
 40
7.076948677051658
 40
9.156146304251113
 40
10.47669668316469
 40
11.62831749841482
 40
12.5476502844357
 40
13.4168765389528
 40
14.28537197130219
 40
15.20467917355495
 40
16.36440402780123
 40
17.69552210579211
 40
19.7662730432126
 40
22.25956359967792
 40
24.40012965811992
 40
26.81744156988859
 40
26.81744156988859
 40
26.81744156988859
 40
26.81744156988859
 10
-913.2095962223768
 20
246.8273265084648
 30
0.0
 10
-912.8316850747722
 20
246.1129494628417
 30
0.0
 10
-912.1192573391188
 20
244.7662254652889
 30
0.0
 10
-910.9059669609105
 20
242.7418667718709
 30
0.0
 10
-909.6321439513005
 20
240.891372959458
 30
0.0
 10
-908.340357406913
 20
239.3967743672069
 30
0.0
 10
-907.1891279569912
 20
238.4012763993031
 30
0.0
 10
-906.2184056284093
 20
237.8084052351402
 30
0.0
 10
-905.2892924687876
 20
237.4748898736648
 30
0.0
 10
-904.4015613187225
 20
237.3693095299177
 30
0.0
 10
-903.5143531934364
 20
237.4787516420747
 30
0.0
 10
-902.5841628006638
 20
237.8163605983289
 30
0.0
 10
-901.610053727066
 20
238.4157077199846
 30
0.0
 10
-900.459408964967
 20
239.4170614704527
 30
0.0
 10
-899.1728786731585
 20
240.9108466445932
 30
0.0
 10
-897.9053613007404
 20
242.7545528124087
 30
0.0
 10
-896.6969265021794
 20
244.7717883926938
 30
0.0
 10
-895.9864198542027
 20
246.1149621405216
 30
0.0
 10
-895.6095962161997
 20
246.8273265204129
 30
0.0
 11
-913.2095962223768
 21
246.8273265084648
 31
0.0
 11
-912.0558672450874
 21
244.6953050815649
 31
0.0
 11
-910.9502920487255
 21
242.8562283565501
 31
0.0
 11
-909.5108045111925
 21
240.8037267927965
 31
0.0
 11
-908.1308994485898
 21
239.2484374968928
 31
0.0
 11
-907.1229228947552
 21
238.3953041124724
 31
0.0
 11
-906.1328463289547
 21
237.8071044037339
 31
0.0
 11
-905.264906460145
 21
237.5040315467223
 31
0.0
 11
-904.4014013374698
 21
237.4044665643017
 31
0.0
 11
-903.5390518309513
 21
237.5076055272836
 31
0.0
 11
-902.6722024946673
 21
237.8137067546066
 31
0.0
 11
-901.6770489282105
 21
238.4092158797501
 31
0.0
 11
-900.6636933919361
 21
239.2723415346325
 31
0.0
 11
-899.2925099498733
 21
240.8240713486801
 31
0.0
 11
-897.8623843339125
 21
242.8664323659563
 31
0.0
 11
-896.7599328863382
 21
244.7012685600203
 31
0.0
 11
-895.6095962161997
 21
246.8273265204129
 31
0.0
  0
SPLINE
  5
2A7
330
1F
100
AcDbEntity
  8
0
  6
Continuous
 62
     7
100
AcDbSpline
210
0.0
220
0.0
230
1.0
 70
     8
 71
     3
 72
    25
 73
    21
 74
    19
 42
0.000000001
 43
0.0000000001
 44
0.00000001
 40
0.0
 40
0.0
 40
0.0
 40
0.0
 40
0.5719850390962313
 40
1.200552185933361
 40
1.492778378260159
 40
1.798419422438937
 40
2.120876294839735
 40
2.381500329955069
 40
2.709743017968394
 40
3.045700947095227
 40
3.279211508891422
 40
3.483167028332193
 40
3.669248122730988
 40
3.85989364227984
 40
4.076213135178491
 40
4.3728368244026
 40
4.766746116851221
 40
5.330640792919587
 40
5.851919291554295
 40
6.371950383400154
 40
6.371950383400154
 40
6.371950383400154
 40
6.371950383400154
 10
-991.1095962161996
 20
246.8273265204129
 30
0.0
 10
-991.0201875336453
 20
246.9957495810463
 30
0.0
 10
-990.8325256393905
 20
247.3492565019877
 30
0.0
 10
-990.5736529872414
 20
247.7746948201964
 30
0.0
 10
-990.3449153129646
 20
248.1135936024255
 30
0.0
 10
-990.1633849285962
 20
248.3610148110631
 30
0.0
 10
-989.9763382005326
 20
248.5909639808728
 30
0.0
 10
-989.770538650108
 20
248.814657076934
 30
0.0
 10
-989.5440934129231
 20
249.0245168943385
 30
0.0
 10
-989.298093134516
 20
249.1978979076056
 30
0.0
 10
-989.0604524510455
 20
249.3024377699957
 30
0.0
 10
-988.8526940167277
 20
249.3375950249351
 30
0.0
 10
-988.657682205725
 20
249.3070233795377
 30
0.0
 10
-988.4818172154621
 20
249.2087623865673
 30
0.0
 10
-988.3197149635864
 20
249.0353674194642
 30
0.0
 10
-988.173138631428
 20
248.7681631885662
 30
0.0
 10
-988.043592306408
 20
248.368793066952
 30
0.0
 10
-987.9602705402478
 20
247.8815369766509
 30
0.0
 10
-987.9160268102266
 20
247.3478635065304
 30
0.0
 10
-987.9117380360135
 20
247.000700216475
 30
0.0
 10
-987.9095962223769
 20
246.8273265084542
 30
0.0
 11
-991.1095962161996
 21
246.8273265204129
 31
0.0
 11
-990.8367091746935
 21
247.3300188254228
 31
0.0
 11
-990.5097093491368
 21
247.8668314309607
 31
0.0
 11
-990.3458832404447
 21
248.1088172855738
 31
0.0
 11
-990.1647354488261
 21
248.3549918694417
 31
0.0
 11
-989.9605857326073
 21
248.6045942096431
 31
0.0
 11
-989.7836138694513
 21
248.7959207565408
 31
0.0
 11
-989.5412493244995
 21
249.0172862686993
 31
0.0
 11
-989.2634338067217
 21
249.206194364677
 31
0.0
 11
-989.0481394252395
 21
249.2966129030534
 31
0.0
 11
-988.8464564547262
 21
249.3269746159093
 31
0.0
 11
-988.6628260879053
 21
249.2968737464096
 31
0.0
 11
-988.4953386651514
 21
249.2058041158854
 31
0.0
 11
-988.3444894130992
 21
249.050760165926
 31
0.0
 11
-988.1962992305578
 21
248.7938063118265
 31
0.0
 11
-988.068750851718
 21
248.4211188527879
 31
0.0
 11
-987.9663002148745
 21
247.8666090933481
 31
0.0
 11
-987.9221101801967
 21
247.3472070192567
 31
0.0
 11
-987.9095962223769
 21
246.8273265084542
 31
0.0
  0
SPLINE
  5
2A8
330
1F
100
AcDbEntity
  8
0
  6
Continuous
 62
     7
100
AcDbSpline
210
0.0
220
0.0
230
1.0
 70
     8
 71
     3
 72
    25
 73
    21
 74
    19
 42
0.000000001
 43
0.0000000001
 44
0.00000001
 40
0.0
 40
0.0
 40
0.0
 40
0.0
 40
0.5215676933686841
 40
1.044377366490447
 40
1.608809571400273
 40
2.002680939819872
 40
2.281510695413205
 40
2.51349830549227
 40
2.716746326073455
 40
2.890031856190609
 40
2.986728786980677
 40
3.098621603716718
 40
3.213589998392163
 40
3.328033604892522
 40
3.665074815211823
 40
3.994340728524232
 40
4.535755426942925
 40
5.171830328683543
 40
5.800394682645874
 40
6.372382594770785
 40
6.372382594770785
 40
6.372382594770785
 40
6.372382594770785
 10
-1011.909596222377
 20
246.8273265084605
 30
0.0
 10
-1011.907442177602
 20
247.0012115595217
 30
0.0
 10
-1011.903128949411
 20
247.3493957240792
 30
0.0
 10
-1011.858622665831
 20
247.8842763159455
 30
0.0
 10
-1011.774864974772
 20
248.372089626998
 30
0.0
 10
-1011.646517800767
 20
248.7659579448104
 30
0.0
 10
-1011.501050467638
 20
249.0323555550515
 30
0.0
 10
-1011.338069909676
 20
249.2102829403662
 30
0.0
 10
-1011.15575839304
 20
249.3090294412011
 30
0.0
 10
-1010.996858185364
 20
249.3316317017064
 30
0.0
 10
-1010.869641190541
 20
249.3213192863765
 30
0.0
 10
-1010.764142547354
 20
249.2971023861825
 30
0.0
 10
-1010.657176703312
 20
249.2576436994062
 30
0.0
 10
-1010.487449314484
 20
249.1743303873565
 30
0.0
 10
-1010.273408861603
 20
249.0232059584892
 30
0.0
 10
-1009.978101506204
 20
248.7488895390587
 30
0.0
 10
-1009.65111640574
 20
248.3659535384429
 30
0.0
 10
-1009.305090540388
 20
247.872679215199
 30
0.0
 10
-1008.986684794167
 20
247.3492601322335
 30
0.0
 10
-1008.799011011951
 20
246.9957513097335
 30
0.0
 10
-1008.709596222356
 20
246.8273265084249
 30
0.0
 11
-1011.909596222377
 21
246.8273265084605
 31
0.0
 11
-1011.897004055195
 21
247.348742181684
 31
0.0
 11
-1011.852512153799
 21
247.8696552508416
 31
0.0
 11
-1011.749529870254
 21
248.4246132346771
 31
0.0
 11
-1011.621426859264
 21
248.7970703111693
 31
0.0
 11
-1011.483252679649
 21
249.0392560435739
 31
0.0
 11
-1011.3226870919
 21
249.2066984024702
 31
0.0
 11
-1011.142812373656
 21
249.301328439485
 31
0.0
 11
-1010.971435081729
 21
249.3269740822797
 31
0.0
 11
-1010.875020872026
 21
249.3195851270314
 31
0.0
 11
-1010.765843771679
 21
249.2950828152946
 31
0.0
 11
-1010.657805652695
 21
249.2557700095028
 31
0.0
 11
-1010.554885933376
 21
249.2057213280635
 31
0.0
 11
-1010.276328979508
 21
249.0159772862373
 31
0.0
 11
-1010.033399963993
 21
248.793712724329
 31
0.0
 11
-1009.677987171757
 21
248.385286937091
 31
0.0
 11
-1009.309483131816
 21
247.8668314864328
 31
0.0
 11
-1008.982484688844
 21
247.3300213089363
 31
0.0
 11
-1008.709596222356
 21
246.8273265084249
 31
0.0
  0
SPLINE
  5
2A9
330
1F
100
AcDbEntity
  8
0
  6
Continuous
 62
     7
100
AcDbSpline
210
0.0
220
0.0
230
1.0
 70
     8
 71
     3
 72
    23
 73
    19
 74
    17
 42
0.000000001
 43
0.0000000001
 44
0.00000001
 40
0.0
 40
0.0
 40
0.0
 40
0.0
 40
2.4173119116595
 40
4.557877970189944
 40
7.051168526648313
 40
9.121919464055066
 40
10.45303754206775
 40
11.61276239631088
 40
12.53206959855445
 40
13.40056503091331
 40
14.269791285408
 40
15.18912407145216
 40
16.34074488667946
 40
17.6612952656
 40
19.74049289280369
 40
22.24746059033853
 40
24.39327039383561
 40
26.81744156984379
 40
26.81744156984379
 40
26.81744156984379
 40
26.81744156984379
 10
-991.1095962161996
 20
246.8273265204129
 30
0.0
 10
-991.4864198541854
 20
246.1149621405537
 30
0.0
 10
-992.196926502158
 20
244.7717883927317
 30
0.0
 10
-993.4053613007115
 20
242.7545528124526
 30
0.0
 10
-994.6728786731403
 20
240.9108466446172
 30
0.0
 10
-995.9594089649468
 20
239.4170614704745
 30
0.0
 10
-997.110053727043
 20
238.4157077200011
 30
0.0
 10
-998.0841628006415
 20
237.8163605983405
 30
0.0
 10
-999.0143531934108
 20
237.4787516420811
 30
0.0
 10
-999.901561318689
 20
237.3693095299181
 30
0.0
 10
-1000.789292468758
 20
237.4748898736576
 30
0.0
 10
-1001.718405628376
 20
237.8084052351236
 30
0.0
 10
-1002.689127956963
 20
238.4012763992824
 30
0.0
 10
-1003.840357406887
 20
239.3967743671784
 30
0.0
 10
-1005.132143951278
 20
240.8913729594282
 30
0.0
 10
-1006.4059669609
 20
242.7418667718538
 30
0.0
 10
-1007.619257339107
 20
244.7662254652682
 30
0.0
 10
-1008.33168507476
 20
246.1129494628198
 30
0.0
 10
-1008.709596222356
 20
246.8273265084249
 30
0.0
 11
-991.1095962161996
 21
246.8273265204129
 31
0.0
 11
-992.2599328862841
 21
244.7012685601152
 31
0.0
 11
-993.3623843339012
 21
242.8664323659738
 31
0.0
 11
-994.7925099498561
 21
240.8240713487019
 31
0.0
 11
-996.1636933919065
 21
239.2723415346616
 31
0.0
 11
-997.1770489281946
 21
238.4092158797617
 31
0.0
 11
-998.1722024946466
 21
237.8137067546164
 31
0.0
 11
-999.03905183092
 21
237.507605527291
 31
0.0
 11
-999.9014013374472
 21
237.4044665643017
 31
0.0
 11
-1000.764906460101
 21
237.504031546712
 31
0.0
 11
-1001.632846328935
 21
237.8071044037246
 31
0.0
 11
-1002.622922894719
 21
238.3953041124461
 31
0.0
 11
-1003.630899448563
 21
239.2484374968663
 31
0.0
 11
-1005.010804511172
 21
240.8037267927701
 31
0.0
 11
-1006.450292048703
 21
242.8562283565149
 31
0.0
 11
-1007.555867245095
 21
244.6953050815785
 31
0.0
 11
-1008.709596222356
 21
246.8273265084249
 31
0.0
  0
SPLINE
  5
2AA
330
1F
100
AcDbEntity
  8
0
  6
Continuous
 62
     7
100
AcDbSpline
210
0.0
220
0.0
230
1.0
 70
     8
 71
     3
 72
    13
 73
     9
 74
     7
 42
0.000000001
 43
0.0000000001
 44
0.00000001
 40
0.0
 40
0.0
 40
0.0
 40
0.0
 40
0.7319929772549995
 40
1.446211147506777
 40
2.127867593943267
 40
2.768178214704928
 40
3.36718319393215
 40
3.935473909857891
 40
3.935473909857891
 40
3.935473909857891
 40
3.935473909857891
 10
-994.9537644981831
 20
397.531814775774
 30
0.0
 10
-994.7093897483585
 20
397.5189227811096
 30
0.0
 10
-994.2265743425314
 20
397.4934518307879
 30
0.0
 10
-993.540654972884
 20
397.2898244283685
 30
0.0
 10
-992.9330962027224
 20
396.976086596346
 30
0.0
 10
-992.4441857114566
 20
396.5559520336297
 30
0.0
 10
-992.0850467550684
 20
396.0562927123585
 30
0.0
 10
-991.9911504285732
 20
395.6755559181021
 30
0.0
 10
-991.9454375872679
 20
395.4901965539169
 30
0.0
 11
-994.9537644981831
 21
397.531814775774
 31
0.0
 11
-994.2249001636545
 21
397.4642093192811
 31
0.0
 11
-993.5389181536607
 21
397.2653720057788
 31
0.0
 11
-992.9361787752125
 21
396.946999967321
 31
0.0
 11
-992.4521429217561
 21
396.5278257941391
 31
0.0
 11
-992.1152902334252
 21
396.0325105039231
 31
0.0
 11
-991.9454375872679
 21
395.4901965539169
 31
0.0
  0
SPLINE
  5
2AB
330
1F
100
AcDbEntity
  8
0
  6
Continuous
 62
     7
100
AcDbSpline
210
0.0
220
0.0
230
1.0
 70
     8
 71
     3
 72
    13
 73
     9
 74
     7
 42
0.000000001
 43
0.0000000001
 44
0.00000001
 40
0.0
 40
0.0
 40
0.0
 40
0.0
 40
0.7319929772547626
 40
1.446211147506431
 40
2.127867593943122
 40
2.768178214704955
 40
3.367183193932049
 40
3.935473909857755
 40
3.935473909857755
 40
3.935473909857755
 40
3.935473909857755
 10
-1004.865427946571
 20
397.5318147757739
 30
0.0
 10
-1005.109802696396
 20
397.5189227811094
 30
0.0
 10
-1005.592618102223
 20
397.4934518307878
 30
0.0
 10
-1006.27853747187
 20
397.2898244283686
 30
0.0
 10
-1006.886096242031
 20
396.9760865963461
 30
0.0
 10
-1007.375006733298
 20
396.5559520336299
 30
0.0
 10
-1007.734145689685
 20
396.0562927123583
 30
0.0
 10
-1007.828042016181
 20
395.675555918102
 30
0.0
 10
-1007.873754857486
 20
395.4901965539169
 30
0.0
 11
-1004.865427946571
 21
397.5318147757739
 31
0.0
 11
-1005.594292281099
 21
397.4642093192811
 31
0.0
 11
-1006.280274291093
 21
397.2653720057788
 31
0.0
 11
-1006.883013669541
 21
396.946999967321
 31
0.0
 11
-1007.367049522998
 21
396.5278257941391
 31
0.0
 11
-1007.703902211329
 21
396.0325105039231
 31
0.0
 11
-1007.873754857486
 21
395.4901965539169
 31
0.0
  0
SPLINE
  5
2AC
330
1F
100
AcDbEntity
  8
0
  6
Continuous
 62
     7
100
AcDbSpline
210
0.0
220
0.0
230
1.0
 70
     8
 71
     3
 72
     9
 73
     5
 74
     3
 42
0.000000001
 43
0.0000000001
 44
0.00000001
 40
0.0
 40
0.0
 40
0.0
 40
0.0
 40
0.1934887544253417
 40
0.4231378217206098
 40
0.4231378217206098
 40
0.4231378217206098
 40
0.4231378217206098
 10
-1008.230403418859
 20
393.2355481171151
 30
0.0
 10
-1008.214455991267
 20
393.2980791896277
 30
0.0
 10
-1008.17958080695
 20
393.4348275125419
 30
0.0
 10
-1008.15783103119
 20
393.5742851981734
 30
0.0
 10
-1008.146026812986
 20
393.6499728976979
 30
0.0
 11
-1008.230403418859
 21
393.2355481171151
 31
0.0
 11
-1008.185305627573
 21
393.4237078562538
 31
0.0
 11
-1008.146026812986
 21
393.6499728976979
 31
0.0
  0
SPLINE
  5
2AD
330
1F
100
AcDbEntity
  8
0
  6
Continuous
 62
     7
100
AcDbSpline
210
0.0
220
0.0
230
1.0
 70
     8
 71
     3
 72
     9
 73
     5
 74
     3
 42
0.000000001
 43
0.0000000001
 44
0.00000001
 40
0.0
 40
0.0
 40
0.0
 40
0.0
 40
0.1934887544254303
 40
0.4231378217209201
 40
0.4231378217209201
 40
0.4231378217209201
 40
0.4231378217209201
 10
-991.5887890258952
 20
393.2355481171146
 30
0.0
 10
-991.6047364534871
 20
393.2980791896272
 30
0.0
 10
-991.6396116378037
 20
393.4348275125416
 30
0.0
 10
-991.6613614135629
 20
393.5742851981734
 30
0.0
 10
-991.6731656317673
 20
393.6499728976979
 30
0.0
 11
-991.5887890258952
 21
393.2355481171146
 31
0.0
 11
-991.6338868171811
 21
393.4237078562535
 31
0.0
 11
-991.6731656317673
 21
393.6499728976979
 31
0.0
  0
SPLINE
  5
2AE
330
1F
100
AcDbEntity
  8
0
  6
Continuous
 62
     7
100
AcDbSpline
210
0.0
220
0.0
230
1.0
 70
     8
 71
     3
 72
    11
 73
     7
 74
     5
 42
0.000000001
 43
0.0000000001
 44
0.00000001
 40
0.0
 40
0.0
 40
0.0
 40
0.0
 40
0.0847630961065955
 40
0.1552958424792058
 40
0.230514343594086
 40
0.3237507324215626
 40
0.3237507324215626
 40
0.3237507324215626
 40
0.3237507324215626
 10
-983.6095962223767
 20
300.0301138341647
 30
0.0
 10
-983.6111904241876
 20
300.0015379965144
 30
0.0
 10
-983.6141111999143
 20
299.9491837434097
 30
0.0
 10
-983.657746874013
 20
299.8810214686658
 30
0.0
 10
-983.7328334115904
 20
299.8455806910172
 30
0.0
 10
-983.7892412508338
 20
299.8431711255479
 30
0.0
 10
-983.8204618548717
 20
299.8418374869479
 30
0.0
 11
-983.6095962223767
 21
300.0301138341647
 31
0.0
 11
-983.6222665377062
 21
299.9463030577107
 31
0.0
 11
-983.6611226494236
 21
299.8874382010824
 31
0.0
 11
-983.727866623169
 21
299.8527529687971
 31
0.0
 11
-983.8204618548717
 21
299.8418374869479
 31
0.0
  0
SPLINE
  5
2AF
330
1F
100
AcDbEntity
  8
0
  6
Continuous
 62
     7
100
AcDbSpline
210
0.0
220
0.0
230
1.0
 70
     8
 71
     3
 72
    11
 73
     7
 74
     5
 42
0.000000001
 43
0.0000000001
 44
0.00000001
 40
0.0
 40
0.0
 40
0.0
 40
0.0
 40
0.4569323836677621
 40
0.9365077501662535
 40
1.432069492036184
 40
1.935886531240144
 40
1.935886531240144
 40
1.935886531240144
 40
1.935886531240144
 10
-993.2410463838315
 20
305.2034986507305
 30
0.0
 10
-993.3800090694677
 20
305.2663949855597
 30
0.0
 10
-993.6648206507281
 20
305.3953044276136
 30
0.0
 10
-994.1272758607265
 20
305.5200445595652
 30
0.0
 10
-994.6144490838428
 20
305.602735080771
 30
0.0
 10
-994.947800926357
 20
305.6127617416431
 30
0.0
 10
-995.1158536626754
 20
305.617816476826
 30
0.0
 11
-993.2410463838315
 21
305.2034986507305
 31
0.0
 11
-993.6621273214655
 21
305.3809191904052
 31
0.0
 11
-994.1236408102079
 21
305.5112949286877
 31
0.0
 11
-994.6127508264009
 21
305.5909995909054
 31
0.0
 11
-995.1158536626754
 21
305.617816476826
 31
0.0
  0
SPLINE
  5
2B0
330
1F
100
AcDbEntity
  8
0
  6
Continuous
 62
     7
100
AcDbSpline
210
0.0
220
0.0
230
1.0
 70
     8
 71
     3
 72
     9
 73
     5
 74
     3
 42
0.000000001
 43
0.0000000001
 44
0.00000001
 40
0.0
 40
0.0
 40
0.0
 40
0.0
 40
0.1925540508112256
 40
0.3820092673864069
 40
0.3820092673864069
 40
0.3820092673864069
 40
0.3820092673864069
 10
-992.9832422310578
 20
304.9217322401683
 30
0.0
 10
-993.0249439802511
 20
304.9705516872623
 30
0.0
 10
-993.1076763738804
 20
305.0674049010634
 30
0.0
 10
-993.1968307805995
 20
305.1583800668957
 30
0.0
 10
-993.2410463838315
 20
305.2034986507305
 30
0.0
 11
-992.9832422310578
 21
304.9217322401683
 31
0.0
 11
-993.109979142675
 21
305.0666971249001
 31
0.0
 11
-993.2410463838315
 21
305.2034986507305
 31
0.0
  0
SPLINE
  5
2B1
330
1F
100
AcDbEntity
  8
0
  6
Continuous
 62
     7
100
AcDbSpline
210
0.0
220
0.0
230
1.0
 70
     8
 71
     3
 72
     9
 73
     5
 74
     3
 42
0.000000001
 43
0.0000000001
 44
0.00000001
 40
0.0
 40
0.0
 40
0.0
 40
0.0
 40
0.2100483570414766
 40
0.4291422466116116
 40
0.4291422466116116
 40
0.4291422466116116
 40
0.4291422466116116
 10
-992.5005480459328
 20
304.6606233026965
 30
0.0
 10
-992.5492953484861
 20
304.7110183390227
 30
0.0
 10
-992.6488892234642
 20
304.8139786114042
 30
0.0
 10
-992.76220064231
 20
304.9016327506334
 30
0.0
 10
-992.8200505569426
 20
304.9463836068546
 30
0.0
 11
-992.5005480459328
 21
304.6606233026965
 31
0.0
 11
-992.6500762995812
 21
304.8081414841449
 31
0.0
 11
-992.8200505569426
 21
304.9463836068546
 31
0.0
  0
SPLINE
  5
2B2
330
1F
100
AcDbEntity
  8
0
  6
Continuous
 62
     7
100
AcDbSpline
210
0.0
220
0.0
230
1.0
 70
     8
 71
     3
 72
     9
 73
     5
 74
     3
 42
0.000000001
 43
0.0000000001
 44
0.00000001
 40
0.0
 40
0.0
 40
0.0
 40
0.0
 40
0.1447559754980057
 40
0.2893754672791403
 40
0.2893754672791403
 40
0.2893754672791403
 40
0.2893754672791403
 10
-992.098388080618
 20
303.8359815441017
 30
0.0
 10
-992.108522756535
 20
303.8831616174891
 30
0.0
 10
-992.1287825723517
 20
303.9774772759208
 30
0.0
 10
-992.152411430555
 20
304.0710057675177
 30
0.0
 10
-992.164220297109
 20
304.1177479546636
 30
0.0
 11
-992.098388080618
 21
303.8359815441017
 31
0.0
 11
-992.1296351734277
 21
303.9773247847181
 31
0.0
 11
-992.164220297109
 21
304.1177479546636
 31
0.0
  0
SPLINE
  5
2B3
330
1F
100
AcDbEntity
  8
0
  6
Continuous
 62
     7
100
AcDbSpline
210
0.0
220
0.0
230
1.0
 70
     8
 71
     3
 72
     9
 73
     5
 74
     3
 42
0.000000001
 43
0.0000000001
 44
0.00000001
 40
0.0
 40
0.0
 40
0.0
 40
0.0
 40
0.0081421438774873
 40
0.0162713110383031
 40
0.0162713110383031
 40
0.0162713110383031
 40
0.0162713110383031
 10
-992.0982675388566
 20
303.8521837740459
 30
0.0
 10
-992.0979142250102
 20
303.8494784434666
 30
0.0
 10
-992.0972081802568
 20
303.8440720932236
 30
0.0
 10
-992.0979949830586
 20
303.8386769592099
 30
0.0
 10
-992.098388080618
 20
303.8359815441017
 30
0.0
 11
-992.0982675388566
 21
303.8521837740459
 31
0.0
 11
-992.0975814145863
 21
303.8440705900009
 31
0.0
 11
-992.098388080618
 21
303.8359815441017
 31
0.0
  0
SPLINE
  5
2B4
330
1F
100
AcDbEntity
  8
0
  6
Continuous
 62
     7
100
AcDbSpline
210
0.0
220
0.0
230
1.0
 70
     8
 71
     3
 72
     9
 73
     5
 74
     3
 42
0.000000001
 43
0.0000000001
 44
0.00000001
 40
0.0
 40
0.0
 40
0.0
 40
0.0
 40
0.1569755017686801
 40
0.3184905039171148
 40
0.3184905039171148
 40
0.3184905039171148
 40
0.3184905039171148
 10
-992.164220297109
 20
304.1177479546636
 30
0.0
 10
-992.1833274073886
 20
304.166560175738
 30
0.0
 10
-992.222094195615
 20
304.2655961872067
 30
0.0
 10
-992.276306137645
 20
304.357102818104
 30
0.0
 10
-992.3037984637405
 20
304.4035082588205
 30
0.0
 11
-992.164220297109
 21
304.1177479546636
 31
0.0
 11
-992.2252936385268
 21
304.2623555453806
 31
0.0
 11
-992.3037984637405
 21
304.4035082588205
 31
0.0
  0
SPLINE
  5
2B5
330
1F
100
AcDbEntity
  8
0
  6
Continuous
 62
     7
100
AcDbSpline
210
0.0
220
0.0
230
1.0
 70
     8
 71
     3
 72
     9
 73
     5
 74
     3
 42
0.000000001
 43
0.0000000001
 44
0.00000001
 40
0.0
 40
0.0
 40
0.0
 40
0.0
 40
0.0316381773672666
 40
0.0668226219396696
 40
0.0668226219396696
 40
0.0668226219396696
 40
0.0668226219396696
 10
-992.3037984637405
 20
304.4035082588205
 30
0.0
 10
-992.3134522515614
 20
304.3992537431469
 30
0.0
 10
-992.3338419108354
 20
304.3902678492024
 30
0.0
 10
-992.3548336830872
 20
304.3827927716994
 30
0.0
 10
-992.3658865882231
 20
304.3788568921354
 30
0.0
 11
-992.3037984637405
 21
304.4035082588205
 31
0.0
 11
-992.3328948059337
 21
304.3910833985198
 31
0.0
 11
-992.3658865882231
 21
304.3788568921354
 31
0.0
  0
SPLINE
  5
2B6
330
1F
100
AcDbEntity
  8
0
  6
Continuous
 62
     7
100
AcDbSpline
210
0.0
220
0.0
230
1.0
 70
     8
 71
     3
 72
     9
 73
     5
 74
     3
 42
0.000000001
 43
0.0000000001
 44
0.00000001
 40
0.0
 40
0.0
 40
0.0
 40
0.0
 40
0.1566790244633422
 40
0.3123228330353534
 40
0.3123228330353534
 40
0.3123228330353534
 40
0.3123228330353534
 10
-992.3658865882231
 20
304.3788568921354
 30
0.0
 10
-992.3874054457202
 20
304.4264511670646
 30
0.0
 10
-992.4303009985639
 20
304.5213252416378
 30
0.0
 10
-992.4771841566728
 20
304.6142933350021
 30
0.0
 10
-992.5005480459328
 20
304.6606233026965
 30
0.0
 11
-992.3658865882231
 21
304.3788568921354
 31
0.0
 11
-992.431446690721
 21
304.52116005342
 31
0.0
 11
-992.5005480459328
 21
304.6606233026965
 31
0.0
  0
SPLINE
  5
2B7
330
1F
100
AcDbEntity
  8
0
  6
Continuous
 62
     7
100
AcDbSpline
210
0.0
220
0.0
230
1.0
 70
     8
 71
     3
 72
     9
 73
     5
 74
     3
 42
0.000000001
 43
0.0000000001
 44
0.00000001
 40
0.0
 40
0.0
 40
0.0
 40
0.0
 40
0.0799892068543648
 40
0.1650482204090602
 40
0.1650482204090602
 40
0.1650482204090602
 40
0.1650482204090602
 10
-992.8200505569426
 20
304.9463836068546
 30
0.0
 10
-992.8463658943691
 20
304.9420852557883
 30
0.0
 10
-992.9006644682465
 20
304.933216139067
 30
0.0
 10
-992.9551583440655
 20
304.9256377946465
 30
0.0
 10
-992.9832422310578
 20
304.9217322401683
 30
0.0
 11
-992.8200505569426
 21
304.9463836068546
 31
0.0
 11
-992.8990424427052
 21
304.9337917360832
 31
0.0
 11
-992.9832422310578
 21
304.9217322401683
 31
0.0
  0
SPLINE
  5
2B8
330
1F
100
AcDbEntity
  8
0
  6
Continuous
 62
     7
100
AcDbSpline
210
0.0
220
0.0
230
1.0
 70
     8
 71
     3
 72
    11
 73
     7
 74
     5
 42
0.000000001
 43
0.0000000001
 44
0.00000001
 40
0.0
 40
0.0
 40
0.0
 40
0.0
 40
0.0847630961060335
 40
0.1552958424791182
 40
0.2305143435909196
 40
0.3237507324009092
 40
0.3237507324009092
 40
0.3237507324009092
 40
0.3237507324009092
 10
-1016.209596222377
 20
300.0301138341647
 30
0.0
 10
-1016.208002020566
 20
300.0015379965146
 30
0.0
 10
-1016.205081244839
 20
299.9491837434099
 30
0.0
 10
-1016.161445570741
 20
299.8810214686671
 30
0.0
 10
-1016.086359033172
 20
299.8455806910191
 30
0.0
 10
-1016.029951193935
 20
299.8431711255485
 30
0.0
 10
-1015.998730589903
 20
299.8418374869479
 30
0.0
 11
-1016.209596222377
 21
300.0301138341647
 31
0.0
 11
-1016.196925907047
 21
299.9463030577113
 31
0.0
 11
-1016.15806979533
 21
299.8874382010824
 31
0.0
 11
-1016.091325821588
 21
299.8527529687972
 31
0.0
 11
-1015.998730589903
 21
299.8418374869479
 31
0.0
  0
SPLINE
  5
2B9
330
1F
100
AcDbEntity
  8
0
  6
Continuous
 62
     7
100
AcDbSpline
210
0.0
220
0.0
230
1.0
 70
     8
 71
     3
 72
     9
 73
     5
 74
     3
 42
0.000000001
 43
0.0000000001
 44
0.00000001
 40
0.0
 40
0.0
 40
0.0
 40
0.0
 40
0.0316381773670575
 40
0.0668226219398869
 40
0.0668226219398869
 40
0.0668226219398869
 40
0.0668226219398869
 10
-1007.515393981013
 20
304.4035082588205
 30
0.0
 10
-1007.505740193192
 20
304.3992537431469
 30
0.0
 10
-1007.485350533918
 20
304.3902678492022
 30
0.0
 10
-1007.464358761667
 20
304.3827927716994
 30
0.0
 10
-1007.45330585653
 20
304.3788568921354
 30
0.0
 11
-1007.515393981013
 21
304.4035082588205
 31
0.0
 11
-1007.48629763882
 21
304.3910833985198
 31
0.0
 11
-1007.45330585653
 21
304.3788568921354
 31
0.0
  0
SPLINE
  5
2BA
330
1F
100
AcDbEntity
  8
0
  6
Continuous
 62
     7
100
AcDbSpline
210
0.0
220
0.0
230
1.0
 70
     8
 71
     3
 72
     9
 73
     5
 74
     3
 42
0.000000001
 43
0.0000000001
 44
0.00000001
 40
0.0
 40
0.0
 40
0.0
 40
0.0
 40
0.1566790244631043
 40
0.3123228330351155
 40
0.3123228330351155
 40
0.3123228330351155
 40
0.3123228330351155
 10
-1007.45330585653
 20
304.3788568921354
 30
0.0
 10
-1007.431786999033
 20
304.4264511670648
 30
0.0
 10
-1007.38889144619
 20
304.5213252416379
 30
0.0
 10
-1007.342008288081
 20
304.6142933350022
 30
0.0
 10
-1007.318644398821
 20
304.6606233026965
 30
0.0
 11
-1007.45330585653
 21
304.3788568921354
 31
0.0
 11
-1007.387745754033
 21
304.52116005342
 31
0.0
 11
-1007.318644398821
 21
304.6606233026965
 31
0.0
  0
SPLINE
  5
2BB
330
1F
100
AcDbEntity
  8
0
  6
Continuous
 62
     7
100
AcDbSpline
210
0.0
220
0.0
230
1.0
 70
     8
 71
     3
 72
     9
 73
     5
 74
     3
 42
0.000000001
 43
0.0000000001
 44
0.00000001
 40
0.0
 40
0.0
 40
0.0
 40
0.0
 40
0.2100483570415575
 40
0.4291422466116925
 40
0.4291422466116925
 40
0.4291422466116925
 40
0.4291422466116925
 10
-1007.318644398821
 20
304.6606233026965
 30
0.0
 10
-1007.269897096268
 20
304.7110183390227
 30
0.0
 10
-1007.170303221289
 20
304.8139786114042
 30
0.0
 10
-1007.056991802444
 20
304.9016327506334
 30
0.0
 10
-1006.999141887811
 20
304.9463836068546
 30
0.0
 11
-1007.318644398821
 21
304.6606233026965
 31
0.0
 11
-1007.169116145172
 21
304.8081414841449
 31
0.0
 11
-1006.999141887811
 21
304.9463836068546
 31
0.0
  0
SPLINE
  5
2BC
330
1F
100
AcDbEntity
  8
0
  6
Continuous
 62
     7
100
AcDbSpline
210
0.0
220
0.0
230
1.0
 70
     8
 71
     3
 72
     9
 73
     5
 74
     3
 42
0.000000001
 43
0.0000000001
 44
0.00000001
 40
0.0
 40
0.0
 40
0.0
 40
0.0
 40
0.0799892068545893
 40
0.1650482204088346
 40
0.1650482204088346
 40
0.1650482204088346
 40
0.1650482204088346
 10
-1006.999141887811
 20
304.9463836068546
 30
0.0
 10
-1006.972826550385
 20
304.9420852557882
 30
0.0
 10
-1006.918527976507
 20
304.9332161390671
 30
0.0
 10
-1006.864034100688
 20
304.9256377946463
 30
0.0
 10
-1006.835950213696
 20
304.9217322401683
 30
0.0
 11
-1006.999141887811
 21
304.9463836068546
 31
0.0
 11
-1006.920150002048
 21
304.9337917360832
 31
0.0
 11
-1006.835950213696
 21
304.9217322401683
 31
0.0
  0
SPLINE
  5
2BD
330
1F
100
AcDbEntity
  8
0
  6
Continuous
 62
     7
100
AcDbSpline
210
0.0
220
0.0
230
1.0
 70
     8
 71
     3
 72
    11
 73
     7
 74
     5
 42
0.000000001
 43
0.0000000001
 44
0.00000001
 40
0.0
 40
0.0
 40
0.0
 40
0.0
 40
0.4569323836677621
 40
0.936507750166363
 40
1.432069492036181
 40
1.935886531240255
 40
1.935886531240255
 40
1.935886531240255
 40
1.935886531240255
 10
-1006.578146060922
 20
305.2034986507305
 30
0.0
 10
-1006.439183375286
 20
305.2663949855597
 30
0.0
 10
-1006.154371794026
 20
305.3953044276136
 30
0.0
 10
-1005.691916584027
 20
305.5200445595652
 30
0.0
 10
-1005.204743360911
 20
305.6027350807711
 30
0.0
 10
-1004.871391518396
 20
305.612761741643
 30
0.0
 10
-1004.703338782078
 20
305.617816476826
 30
0.0
 11
-1006.578146060922
 21
305.2034986507305
 31
0.0
 11
-1006.157065123288
 21
305.3809191904052
 31
0.0
 11
-1005.695551634545
 21
305.5112949286877
 31
0.0
 11
-1005.206441618353
 21
305.5909995909054
 31
0.0
 11
-1004.703338782078
 21
305.617816476826
 31
0.0
  0
SPLINE
  5
2BE
330
1F
100
AcDbEntity
  8
0
  6
Continuous
 62
     7
100
AcDbSpline
210
0.0
220
0.0
230
1.0
 70
     8
 71
     3
 72
     9
 73
     5
 74
     3
 42
0.000000001
 43
0.0000000001
 44
0.00000001
 40
0.0
 40
0.0
 40
0.0
 40
0.0
 40
0.1569755017687243
 40
0.3184905039173801
 40
0.3184905039173801
 40
0.3184905039173801
 40
0.3184905039173801
 10
-1007.654972147645
 20
304.1177479546636
 30
0.0
 10
-1007.635865037366
 20
304.166560175738
 30
0.0
 10
-1007.597098249139
 20
304.2655961872069
 30
0.0
 10
-1007.542886307109
 20
304.357102818104
 30
0.0
 10
-1007.515393981013
 20
304.4035082588205
 30
0.0
 11
-1007.654972147645
 21
304.1177479546636
 31
0.0
 11
-1007.593898806227
 21
304.2623555453806
 31
0.0
 11
-1007.515393981013
 21
304.4035082588205
 31
0.0
  0
SPLINE
  5
2BF
330
1F
100
AcDbEntity
  8
0
  6
Continuous
 62
     7
100
AcDbSpline
210
0.0
220
0.0
230
1.0
 70
     8
 71
     3
 72
     9
 73
     5
 74
     3
 42
0.000000001
 43
0.0000000001
 44
0.00000001
 40
0.0
 40
0.0
 40
0.0
 40
0.0
 40
0.1447559754979812
 40
0.289375467279143
 40
0.289375467279143
 40
0.289375467279143
 40
0.289375467279143
 10
-1007.720804364136
 20
303.8359815441017
 30
0.0
 10
-1007.710669688219
 20
303.8831616174891
 30
0.0
 10
-1007.690409872403
 20
303.9774772759208
 30
0.0
 10
-1007.666781014199
 20
304.0710057675178
 30
0.0
 10
-1007.654972147645
 20
304.1177479546636
 30
0.0
 11
-1007.720804364136
 21
303.8359815441017
 31
0.0
 11
-1007.689557271326
 21
303.9773247847181
 31
0.0
 11
-1007.654972147645
 21
304.1177479546636
 31
0.0
  0
SPLINE
  5
2C0
330
1F
100
AcDbEntity
  8
0
  6
Continuous
 62
     7
100
AcDbSpline
210
0.0
220
0.0
230
1.0
 70
     8
 71
     3
 72
     9
 73
     5
 74
     3
 42
0.000000001
 43
0.0000000001
 44
0.00000001
 40
0.0
 40
0.0
 40
0.0
 40
0.0
 40
0.0081421438786767
 40
0.0162713110395718
 40
0.0162713110395718
 40
0.0162713110395718
 40
0.0162713110395718
 10
-1007.720924905897
 20
303.8521837740472
 30
0.0
 10
-1007.721278219743
 20
303.8494784434675
 30
0.0
 10
-1007.721984264497
 20
303.8440720932241
 30
0.0
 10
-1007.721197461695
 20
303.83867695921
 30
0.0
 10
-1007.720804364136
 20
303.8359815441017
 30
0.0
 11
-1007.720924905897
 21
303.8521837740472
 31
0.0
 11
-1007.721611030167
 21
303.844070590001
 31
0.0
 11
-1007.720804364136
 21
303.8359815441017
 31
0.0
  0
SPLINE
  5
2C1
330
1F
100
AcDbEntity
  8
0
  6
Continuous
 62
     7
100
AcDbSpline
210
0.0
220
0.0
230
1.0
 70
     8
 71
     3
 72
     9
 73
     5
 74
     3
 42
0.000000001
 43
0.0000000001
 44
0.00000001
 40
0.0
 40
0.0
 40
0.0
 40
0.0
 40
0.1925540508113752
 40
0.3820092673866352
 40
0.3820092673866352
 40
0.3820092673866352
 40
0.3820092673866352
 10
-1006.835950213696
 20
304.9217322401683
 30
0.0
 10
-1006.794248464503
 20
304.9705516872623
 30
0.0
 10
-1006.711516070873
 20
305.0674049010632
 30
0.0
 10
-1006.622361664154
 20
305.1583800668957
 30
0.0
 10
-1006.578146060922
 20
305.2034986507305
 30
0.0
 11
-1006.835950213696
 21
304.9217322401683
 31
0.0
 11
-1006.709213302079
 21
305.0666971249001
 31
0.0
 11
-1006.578146060922
 21
305.2034986507305
 31
0.0
  0
SOLID
  5
2C2
330
1F
100
AcDbEntity
  8
1
 62
     7
100
AcDbTrace
 10
-901.966435034764
 20
266.7729569266306
 30
0.0
 11
-901.5487221954784
 21
266.1025229863711
 31
0.0
 12
-904.3038042946397
 22
264.85131794803
 32
0.0
 13
-904.3038042946397
 23
264.85131794803
 33
0.0
  0
LEADER
  5
2C3
330
1F
100
AcDbEntity
  8
1
  6
Continuous
 62
     7
100
AcDbLeader
  3
Standard
 71
     0
 76
     3
 10
-904.3038042946397
 20
264.85131794803
 30
0.0
 10
-887.0276628661298
 20
275.6151913957391
 30
0.0
 10
-876.5079807123628
 20
275.6151913957391
 30
0.0
  0
MTEXT
  5
2C5
330
1F
100
AcDbEntity
  8
1
 62
     7
100
AcDbMText
 10
-885.9152238118626
 20
276.7133876789042
 30
0.0
 40
3.0
 41
0.0
 71
     7
 72
     1
  1
\U+00f83,3
  7
CONVERTER_14
 73
     1
 44
1.32052821128451
  0
TEXT
  5
2C6
330
1F
100
AcDbEntity
  8
1
 62
     7
100
AcDbText
 10
-920.1312464070492
 20
413.1890510533643
 30
0.0
 40
3.5
  1
Panel cut-out
 41
0.95
  7
CONVERTER_14
100
AcDbText
  0
DIMENSION
  5
2D1
330
1F
100
AcDbEntity
  8
1
100
AcDbDimension
  2
*D2
 10
-921.909596222377
 20
330.1077046658806
 30
0.0
 11
-898.9346006945023
 21
333.7577046658806
 31
0.0
 70
    32
  1
45,6
 71
     5
 42
-1.0
 53
0.00013888888889
  3
ME10_DIM_10
100
AcDbAlignedDimension
 13
-875.9596051666275
 23
286.45131794803
 33
0.0
 14
-921.909596222377
 24
264.35131794803
 34
0.0
100
AcDbRotatedDimension
  0
DIMENSION
  5
2DC
330
1F
100
AcDbEntity
  8
1
100
AcDbDimension
  2
*D3
 10
-948.9095962223769
 20
291.95131794803
 30
0.0
 11
-952.4095962223769
 21
263.45131794803
 31
0.0
 70
    32
  1
<>
 71
     5
 42
-1.0
 53
90.0
  3
ME10_DIM_11
100
AcDbAlignedDimension
 13
-988.6595962223769
 23
234.95131794803
 33
0.0
 14
-987.9095962223769
 24
291.95131794803
 34
0.0
 50
90.0
100
AcDbRotatedDimension
  0
DIMENSION
  5
2E7
330
1F
100
AcDbEntity
  8
1
100
AcDbDimension
  2
*D4
 10
-916.409596222377
 20
320.1077046658806
 30
0.0
 11
-904.409596222377
 21
323.6077046658806
 31
0.0
 70
    32
  1
<>
 71
     5
 42
-1.0
 53
0.00013888888889
  3
ME10_DIM_12
100
AcDbAlignedDimension
 13
-892.409596222377
 23
291.95131794803
 33
0.0
 14
-916.409596222377
 24
291.95131794803
 34
0.0
100
AcDbRotatedDimension
  0
DIMENSION
  5
2F2
330
1F
100
AcDbEntity
  8
1
100
AcDbDimension
  2
*D5
 10
-1009.909596222377
 20
222.95131794803
 30
0.0
 11
-999.9095962223769
 21
226.45131794803
 31
0.0
 70
    32
  1
<>
 71
     5
 42
-1.0
 53
0.00013888888889
  3
ME10_DIM_13
100
AcDbAlignedDimension
 13
-989.9095962223769
 23
234.95131794803
 33
0.0
 14
-1009.909596222377
 24
234.95131794803
 34
0.0
100
AcDbRotatedDimension
  0
DIMENSION
  5
2FD
330
1F
100
AcDbEntity
  8
1
100
AcDbDimension
  2
*D6
 10
-1026.909596222377
 20
407.5318147757739
 30
0.0
 11
-999.9095962223769
 21
411.0318147757739
 31
0.0
 70
    32
  1
<>
 71
     5
 42
-1.0
 53
0.00013888888889
  3
ME10_DIM_14
100
AcDbAlignedDimension
 13
-972.9095962223769
 23
375.735548117115
 33
0.0
 14
-1026.909596222377
 24
375.735548117115
 34
0.0
100
AcDbRotatedDimension
  0
DIMENSION
  5
308
330
1F
100
AcDbEntity
  8
1
100
AcDbDimension
  2
*D7
 10
-960.9095962223769
 20
393.235548117115
 30
0.0
 11
-964.4095962223769
 21
375.735548117115
 31
0.0
 70
    32
  1
<>
 71
     5
 42
-1.0
 53
90.0
  3
ME10_DIM_15
100
AcDbAlignedDimension
 13
-987.8585253948161
 23
358.235548117115
 33
0.0
 14
-987.8585253948161
 24
393.2355481171149
 34
0.0
 50
90.0
100
AcDbRotatedDimension
  0
DIMENSION
  5
313
330
1F
100
AcDbEntity
  8
1
100
AcDbDimension
  2
*D8
 10
-960.9095962223769
 20
291.95131794803
 30
0.0
 11
-964.5595962223769
 21
278.40131794803
 31
0.0
 70
    32
  1
<>
 71
     5
 42
-1.0
 53
90.0
  3
ME10_DIM_16
100
AcDbAlignedDimension
 13
-974.1464565015623
 23
264.85131794803
 33
0.0
 14
-987.9095962223769
 24
291.95131794803
 34
0.0
 50
90.0
100
AcDbRotatedDimension
  0
DIMENSION
  5
31E
330
1F
100
AcDbEntity
  8
1
100
AcDbDimension
  2
*D9
 10
-960.9095962223769
 20
234.95131794803
 30
0.0
 11
-964.5595962223769
 21
247.90131794803
 31
0.0
 70
    32
  1
<>
 71
     5
 42
-1.0
 53
90.0
  3
ME10_DIM_17
100
AcDbAlignedDimension
 13
-974.9258793649684
 23
260.85131794803
 33
0.0
 14
-988.6595962223769
 24
234.95131794803
 34
0.0
 50
90.0
100
AcDbRotatedDimension
  0
DIMENSION
  5
329
330
1F
100
AcDbEntity
  8
1
100
AcDbDimension
  2
*D10
 10
-917.409596222377
 20
398.7355481171149
 30
0.0
 11
-904.409596222377
 21
402.2355481171149
 31
0.0
 70
    32
  1
<>
 71
     5
 42
-1.0
 53
0.00013888888889
  3
ME10_DIM_18
100
AcDbAlignedDimension
 13
-891.409596222377
 23
388.735548117115
 33
0.0
 14
-917.409596222377
 24
388.735548117115
 34
0.0
100
AcDbRotatedDimension
  0
DIMENSION
  5
334
330
1F
100
AcDbEntity
  8
1
100
AcDbDimension
  2
*D11
 10
-926.409596222377
 20
350.735548117115
 30
0.0
 11
-904.409596222377
 21
354.235548117115
 31
0.0
 70
    32
  1
<>
 71
     5
 42
-1.0
 53
0.00013888888889
  3
ME10_DIM_19
100
AcDbAlignedDimension
 13
-882.409596222377
 23
371.9205481171151
 33
0.0
 14
-926.409596222377
 24
371.9205481171151
 34
0.0
100
AcDbRotatedDimension
  0
DIMENSION
  5
33F
330
1F
100
AcDbEntity
  8
1
100
AcDbDimension
  2
*D12
 10
-936.409596222377
 20
388.735548117115
 30
0.0
 11
-939.909596222377
 21
375.735548117115
 31
0.0
 70
    32
  1
<>
 71
     5
 42
-1.0
 53
90.0
  3
ME10_DIM_20
100
AcDbAlignedDimension
 13
-917.409596222377
 23
362.735548117115
 33
0.0
 14
-917.409596222377
 24
388.735548117115
 34
0.0
 50
90.0
100
AcDbRotatedDimension
  0
DIMENSION
  5
34A
330
1F
100
AcDbEntity
  8
1
100
AcDbDimension
  2
*D13
 10
-1016.409596222377
 20
320.1077046658806
 30
0.0
 11
-999.9095962223768
 21
323.6077046658806
 31
0.0
 70
    32
  1
<>
 71
     5
 42
-1.0
 53
0.00013888888889
  3
ME10_DIM_21
100
AcDbAlignedDimension
 13
-983.4095962223768
 23
306.2013179480196
 33
0.0
 14
-1016.409596222377
 24
306.2013179480196
 34
0.0
100
AcDbRotatedDimension
  0
DIMENSION
  5
355
330
1F
100
AcDbEntity
  8
1
100
AcDbDimension
  2
*D14
 10
-1021.909596222377
 20
210.95131794803
 30
0.0
 11
-999.909596222377
 21
214.45131794803
 31
0.0
 70
    32
  1
<>
 71
     5
 42
-1.0
 53
0.00013888888889
  3
ME10_DIM_22
100
AcDbAlignedDimension
 13
-977.909596222377
 23
257.40131794803
 33
0.0
 14
-1021.909596222377
 24
257.40131794803
 34
0.0
100
AcDbRotatedDimension
  0
INSERT
  5
35E
330
1F
100
AcDbEntity
  8
1
100
AcDbBlockReference
  2
*D15
 10
0.0
 20
0.0
 30
0.0
  0
HATCH
  5
35F
330
1F
100
AcDbEntity
  8
1
  6
Continuous
 62
     7
100
AcDbHatch
 10
0.0
 20
0.0
 30
0.0
210
0.0
220
0.0
230
1.0
  2
SOLID
 70
     1
 71
     1
 91
        1
 92
        1
 93
        8
 72
     1
 10
-1024.893313079786
 20
262.80131794803
 11
-1024.893313079786
 21
260.85131794803
 72
     1
 10
-1024.893313079786
 20
260.85131794803
 11
-974.9258793649684
 21
260.85131794803
 72
     1
 10
-974.9258793649684
 20
260.85131794803
 11
-974.9258793649684
 21
262.80131794803
 72
     1
 10
-974.9258793649684
 20
262.80131794803
 11
-972.9095962223769
 21
262.80131794803
 72
     1
 10
-972.9095962223769
 20
262.80131794803
 11
-972.9095962223769
 21
260.40131794803
 72
     1
 10
-972.9095962223769
 20
260.40131794803
 11
-1026.909596222377
 21
260.40131794803
 72
     1
 10
-1026.909596222377
 20
260.40131794803
 11
-1026.909596222377
 21
262.80131794803
 72
     1
 10
-1026.909596222377
 20
262.80131794803
 11
-1024.893313079786
 21
262.80131794803
 97
        8
330
1D5
330
1EA
330
1CF
330
212
330
1CE
330
1D1
330
1D4
330
214
 75
     0
 76
     1
 98
        1
 10
0.0
 20
0.0
  0
HATCH
  5
360
330
1F
100
AcDbEntity
  8
1
  6
Continuous
 62
     7
100
AcDbHatch
 10
0.0
 20
0.0
 30
0.0
210
0.0
220
0.0
230
1.0
  2
SOLID
 70
     1
 71
     1
 91
        1
 92
        1
 93
        8
 72
     1
 10
-899.3095962223769
 20
262.80131794803
 11
-899.3095962223769
 21
260.85131794803
 72
     1
 10
-899.3095962223769
 20
260.85131794803
 11
-888.5095962223769
 21
260.85131794803
 72
     1
 10
-888.5095962223769
 20
260.85131794803
 11
-888.5095962223769
 21
260.40131794803
 72
     1
 10
-888.5095962223769
 20
260.40131794803
 11
-920.3095962223769
 21
260.40131794803
 72
     1
 10
-920.3095962223769
 20
260.40131794803
 11
-920.3095962223769
 21
260.85131794803
 72
     1
 10
-920.3095962223769
 20
260.85131794803
 11
-909.5095962223769
 21
260.85131794803
 72
     1
 10
-909.5095962223769
 20
260.85131794803
 11
-909.5095962223769
 21
262.80131794803
 72
     1
 10
-909.5095962223769
 20
262.80131794803
 11
-899.3095962223769
 21
262.80131794803
 97
        8
330
1FC
330
1F7
330
1FA
330
200
330
1FF
330
1F0
330
209
330
1FD
 75
     0
 76
     1
 98
        1
 10
0.0
 20
0.0
  0
HATCH
  5
361
330
1F
100
AcDbEntity
  8
1
  6
Continuous
 62
     7
100
AcDbHatch
 10
0.0
 20
0.0
 30
0.0
210
0.0
220
0.0
230
1.0
  2
SOLID
 70
     1
 71
     1
 91
        4
 92
        1
 93
       30
 72
     2
 10
-976.6001951456184
 20
381.2355481171149
 40
0.500000000000041
 50
209.9999999999972
 51
270.0
 73
     1
 72
     1
 10
-976.6001951456184
 20
380.7355481171149
 11
-975.1568194726442
 21
380.7355481171149
 72
     2
 10
-975.1568194726442
 20
380.235548117115
 40
0.4999999999997873
 50
270.0
 51
330.000000000001
 73
     0
 72
     1
 10
-974.7238067707522
 20
380.4855481171149
 11
-973.7134437996704
 21
378.735548117115
 72
     2
 10
-978.9095962223769
 20
375.735548117115
 40
6.0
 50
329.9999999999995
 51
360.0
 73
     0
 72
     2
 10
-978.9095962223769
 20
375.735548117115
 40
6.0
 50
0.0
 51
30.00000000000002
 73
     0
 72
     1
 10
-973.7134437996702
 20
372.735548117115
 11
-974.723806770752
 21
370.985548117115
 72
     2
 10
-975.1568194726442
 20
371.235548117115
 40
0.5
 50
30.00000000000378
 51
90.0
 73
     0
 72
     1
 10
-975.1568194726442
 20
370.735548117115
 11
-976.6001951456184
 21
370.735548117115
 72
     2
 10
-976.6001951456184
 20
370.235548117115
 40
0.5
 50
90.0
 51
150.0000000000027
 73
     1
 72
     1
 10
-977.0332078475107
 20
370.485548117115
 11
-980.7571170837837
 21
364.035548117115
 72
     2
 10
-988.031730475573
 20
368.235548117115
 40
8.399999999999977
 50
29.99999999999976
 51
90.0
 73
     0
 72
     1
 10
-988.031730475573
 20
359.835548117115
 11
-1011.787461969181
 21
359.835548117115
 72
     2
 10
-1011.787461969181
 20
368.235548117115
 40
8.39999999999974
 50
90.0
 51
149.9999999999991
 73
     0
 72
     1
 10
-1019.06207536097
 20
364.035548117115
 11
-1022.785984597243
 21
370.485548117115
 72
     2
 10
-1023.218997299135
 20
370.235548117115
 40
0.4999999999998441
 50
30.00000000001031
 51
90.0
 73
     1
 72
     1
 10
-1023.218997299135
 20
370.735548117115
 11
-1024.662372972109
 21
370.735548117115
 72
     2
 10
-1024.662372972109
 20
371.235548117115
 40
0.5000000000006317
 50
90.0
 51
150.0000000000418
 73
     0
 72
     1
 10
-1025.095385674002
 20
370.985548117115
 11
-1026.105748645083
 21
372.735548117115
 72
     2
 10
-1020.909596222377
 20
375.735548117115
 40
6.000000000000114
 50
149.9999999999968
 51
180.0
 73
     0
 72
     2
 10
-1020.909596222377
 20
375.735548117115
 40
5.999999999999409
 50
180.0
 51
210.0000000000032
 73
     0
 72
     1
 10
-1026.105748645083
 20
378.735548117115
 11
-1025.095385674002
 21
380.4855481171149
 72
     2
 10
-1024.662372972109
 20
380.235548117115
 40
0.4999999999998863
 50
209.9999999999469
 51
270.0
 73
     0
 72
     1
 10
-1024.662372972109
 20
380.7355481171149
 11
-1023.218997299135
 21
380.7355481171149
 72
     2
 10
-1023.218997299135
 20
381.2355481171149
 40
0.5
 50
270.0
 51
329.9999999999897
 73
     1
 72
     1
 10
-1022.785984597243
 20
380.9855481171149
 11
-1019.06207536097
 21
387.4355481171151
 72
     2
 10
-1011.787461969181
 20
383.2355481171149
 40
8.400000000000091
 50
210.0000000000023
 51
270.0
 73
     0
 72
     1
 10
-1011.787461969181
 20
391.635548117115
 11
-988.0317304755729
 21
391.635548117115
 72
     2
 10
-988.0317304755729
 20
383.2355481171149
 40
8.400000000000048
 50
270.0
 51
329.9999999999985
 73
     0
 72
     1
 10
-980.7571170837837
 20
387.4355481171151
 11
-977.0332078475107
 21
380.9855481171149
 97
       30
330
27A
330
1A7
330
27B
330
1A8
330
274
330
298
330
186
330
266
330
190
330
26D
330
18B
330
267
330
1C0
330
25E
330
183
330
27D
330
1B0
330
27E
330
1AE
330
27C
330
297
330
1C2
330
28A
330
1CC
330
287
330
1C5
330
289
330
19B
330
272
330
1A5
 92
       16
 93
        1
 72
     2
 10
-977.9095962223769
 20
375.735548117115
 40
1.649999999999977
 50
0.0
 51
360.0
 73
     1
 97
        1
330
29D
 92
       16
 93
        1
 72
     2
 10
-1021.909596222377
 20
375.735548117115
 40
1.649999999999977
 50
0.0
 51
360.0
 73
     1
 97
        1
330
29E
 92
       16
 93
       20
 72
     1
 10
-1004.809596222377
 20
363.6855481171151
 11
-1011.909596222377
 21
363.6855481171151
 72
     2
 10
-1011.909596222377
 20
368.6855481171151
 40
5.000000000000451
 50
90.0
 51
158.2843827167366
 73
     0
 72
     2
 10
-1011.909596222377
 20
368.6855481171151
 40
5.0
 50
158.2843827167366
 51
180.0
 73
     0
 72
     1
 10
-1016.909596222377
 20
368.6855481171151
 11
-1016.909596222377
 21
370.6355481171151
 72
     1
 10
-1016.909596222377
 20
370.6355481171151
 11
-1016.909596222377
 21
380.835548117115
 72
     1
 10
-1016.909596222377
 20
380.835548117115
 11
-1016.909596222377
 21
382.785548117115
 72
     2
 10
-1011.909596222377
 20
382.785548117115
 40
5.000000000000409
 50
180.0
 51
201.7156172832622
 73
     0
 72
     2
 10
-1011.909596222377
 20
382.785548117115
 40
5.0
 50
201.7156172832622
 51
270.0
 73
     0
 72
     1
 10
-1011.909596222377
 20
387.785548117115
 11
-1004.809596222377
 21
387.785548117115
 72
     1
 10
-1004.809596222377
 20
387.785548117115
 11
-995.0095962223769
 21
387.785548117115
 72
     1
 10
-995.0095962223769
 20
387.785548117115
 11
-987.9095962223769
 21
387.785548117115
 72
     2
 10
-987.9095962223769
 20
382.785548117115
 40
4.999999999999987
 50
270.0
 51
338.2843827167359
 73
     0
 72
     2
 10
-987.9095962223769
 20
382.785548117115
 40
5.0
 50
338.2843827167359
 51
360.0
 73
     0
 72
     1
 10
-982.9095962223769
 20
382.785548117115
 11
-982.9095962223769
 21
380.835548117115
 72
     1
 10
-982.9095962223769
 20
380.835548117115
 11
-982.9095962223769
 21
370.6355481171151
 72
     1
 10
-982.9095962223769
 20
370.6355481171151
 11
-982.9095962223769
 21
368.6855481171151
 72
     2
 10
-987.9095962223769
 20
368.6855481171151
 40
5.000000000000028
 50
0.0
 51
21.71561728326531
 73
     0
 72
     2
 10
-987.9095962223769
 20
368.6855481171151
 40
5.0
 50
21.71561728326531
 51
90.0
 73
     0
 72
     1
 10
-987.9095962223769
 20
363.6855481171151
 11
-995.0095962223769
 21
363.6855481171151
 72
     1
 10
-995.0095962223769
 20
363.6855481171151
 11
-1004.809596222377
 21
363.6855481171151
 97
       20
330
1BC
330
26E
330
26B
330
18D
330
1B5
330
1A0
330
278
330
275
330
199
330
198
330
19A
330
282
330
285
330
1C6
330
1AD
330
17F
330
264
330
25F
330
1BF
330
1BE
 75
     0
 76
     1
 98
        1
 10
0.0
 20
0.0
  0
ENDSEC
  0
SECTION
  2
OBJECTS
  0
DICTIONARY
  5
C
330
0
100
AcDbDictionary
281
     1
  3
ACAD_GROUP
350
D
  3
ACAD_LAYOUT
350
1A
  3
ACAD_MATERIAL
350
43
  3
ACAD_MLEADERSTYLE
350
364
  3
ACAD_MLINESTYLE
350
17
  3
ACAD_PLOTSETTINGS
350
19
  3
ACAD_PLOTSTYLENAME
350
E
  3
ACAD_SCALELIST
350
47
  3
ACAD_VISUALSTYLE
350
2A
  3
AcDbVariableDictionary
350
362
  0
DICTIONARY
  5
D
102
{ACAD_REACTORS
330
C
102
}
330
C
100
AcDbDictionary
281
     1
  0
DICTIONARY
  5
1A
102
{ACAD_REACTORS
330
C
102
}
330
C
100
AcDbDictionary
281
     1
  3
Layout1
350
1E
  3
Layout2
350
26
  3
Model
350
22
  0
DICTIONARY
  5
43
102
{ACAD_REACTORS
330
C
102
}
330
C
100
AcDbDictionary
281
     1
  3
ByBlock
350
45
  3
ByLayer
350
44
  3
Global
350
46
  0
DICTIONARY
  5
364
102
{ACAD_REACTORS
330
C
102
}
330
C
100
AcDbDictionary
281
     1
  0
DICTIONARY
  5
17
102
{ACAD_REACTORS
330
C
102
}
330
C
100
AcDbDictionary
281
     1
  3
Standard
350
18
  0
DICTIONARY
  5
19
102
{ACAD_REACTORS
330
C
102
}
330
C
100
AcDbDictionary
281
     1
  0
ACDBDICTIONARYWDFLT
  5
E
102
{ACAD_REACTORS
330
C
102
}
330
C
100
AcDbDictionary
281
     1
  3
Normal
350
F
100
AcDbDictionaryWithDefault
340
F
  0
DICTIONARY
  5
47
102
{ACAD_REACTORS
330
C
102
}
330
C
100
AcDbDictionary
281
     1
  3
A0
350
48
  3
A1
350
49
  3
A2
350
4A
  3
A3
350
4B
  3
A4
350
4C
  3
A5
350
4D
  3
A6
350
4E
  3
A7
350
4F
  3
A8
350
50
  3
A9
350
51
  3
B0
350
52
  3
B1
350
53
  3
B2
350
54
  3
B3
350
55
  3
B4
350
56
  3
B5
350
57
  3
B6
350
58
  3
B7
350
59
  3
B8
350
5A
  3
B9
350
5B
  3
C0
350
5C
  3
C1
350
5D
  3
C2
350
5E
  3
C3
350
5F
  3
C4
350
60
  3
C5
350
61
  3
C6
350
62
  3
C7
350
63
  3
C8
350
64
  3
C9
350
65
  3
D0
350
66
  3
D1
350
67
  3
D2
350
68
  0
DICTIONARY
  5
2A
102
{ACAD_REACTORS
330
C
102
}
330
C
100
AcDbDictionary
281
     1
  3
2dWireframe
350
2F
  3
Basic
350
32
  3
Brighten
350
36
  3
ColorChange
350
3A
  3
Conceptual
350
34
  3
Dim
350
35
  3
EdgeColorOff
350
3D
  3
Facepattern
350
39
  3
Flat
350
2B
  3
FlatWithEdges
350
2C
  3
Gouraud
350
2D
  3
GouraudWithEdges
350
2E
  3
Hidden
350
31
  3
JitterOff
350
3B
  3
Linepattern
350
38
  3
OverhangOff
350
3C
  3
Realistic
350
33
  3
Shaded
350
42
  3
Shaded with edges
350
41
  3
Shades of Gray
350
3E
  3
Sketchy
350
3F
  3
Thicken
350
37
  3
Wireframe
350
30
  3
X-Ray
350
40
  0
DICTIONARY
  5
362
102
{ACAD_REACTORS
330
C
102
}
330
C
100
AcDbDictionary
281
     1
  3
CANNOSCALE
350
369
  3
DIMASSOC
350
367
  3
HIDETEXT
350
368
  3
MSLTSCALE
350
36A
  0
LAYOUT
  5
1E
102
{ACAD_REACTORS
330
1A
102
}
330
1A
100
AcDbPlotSettings
  1

  2
none_device
  4

  6

 40
0.0
 41
0.0
 42
0.0
 43
0.0
 44
0.0
 45
0.0
 46
0.0
 47
0.0
 48
0.0
 49
0.0
140
0.0
141
0.0
142
1.0
143
1.0
 70
   688
 72
     0
 73
     0
 74
     5
  7

 75
    16
147
1.0
148
0.0
149
0.0
100
AcDbLayout
  1
Layout1
 70
     1
 71
     1
 10
0.0
 20
0.0
 11
12.0
 21
9.0
 12
0.0
 22
0.0
 32
0.0
 14
1.00000000000000E+20
 24
1.00000000000000E+20
 34
1.00000000000000E+20
 15
-1.00000000000000E+20
 25
-1.00000000000000E+20
 35
-1.00000000000000E+20
146
0.0
 13
0.0
 23
0.0
 33
0.0
 16
1.0
 26
0.0
 36
0.0
 17
0.0
 27
1.0
 37
0.0
 76
     0
330
1B
  0
LAYOUT
  5
26
102
{ACAD_REACTORS
330
1A
102
}
330
1A
100
AcDbPlotSettings
  1

  2
none_device
  4

  6

 40
0.0
 41
0.0
 42
0.0
 43
0.0
 44
0.0
 45
0.0
 46
0.0
 47
0.0
 48
0.0
 49
0.0
140
0.0
141
0.0
142
1.0
143
1.0
 70
   688
 72
     0
 73
     0
 74
     5
  7

 75
    16
147
1.0
148
0.0
149
0.0
100
AcDbLayout
  1
Layout2
 70
     1
 71
     2
 10
0.0
 20
0.0
 11
0.0
 21
0.0
 12
0.0
 22
0.0
 32
0.0
 14
0.0
 24
0.0
 34
0.0
 15
0.0
 25
0.0
 35
0.0
146
0.0
 13
0.0
 23
0.0
 33
0.0
 16
1.0
 26
0.0
 36
0.0
 17
0.0
 27
1.0
 37
0.0
 76
     0
330
23
  0
LAYOUT
  5
22
102
{ACAD_REACTORS
330
1A
102
}
330
1A
100
AcDbPlotSettings
  1

  2
none_device
  4
Letter_(8.50_x_11.00_Inches)
  6

 40
6.35
 41
6.35
 42
6.35000508
 43
6.35000508
 44
215.9
 45
279.4
 46
0.0
 47
0.0
 48
0.0
 49
0.0
140
0.0
141
0.0
142
1.0
143
1.0
 70
  1712
 72
     0
 73
     0
 74
     0
  7

 75
     0
147
1.0
148
0.0
149
0.0
100
AcDbLayout
  1
Model
 70
     1
 71
     0
 10
0.0
 20
0.0
 11
12.0
 21
9.0
 12
0.0
 22
0.0
 32
0.0
 14
-1059.350803461536
 24
151.563962226144
 34
0.0
 15
-849.350803461536
 25
448.5639622261441
 35
0.0
146
0.0
 13
0.0
 23
0.0
 33
0.0
 16
1.0
 26
0.0
 36
0.0
 17
0.0
 27
1.0
 37
0.0
 76
     0
330
1F
331
29
  0
MATERIAL
  5
45
102
{ACAD_REACTORS
330
43
102
}
102
{ACAD_XDICTIONARY
360
39D
102
}
330
43
100
AcDbMaterial
  1
ByBlock
  0
MATERIAL
  5
44
102
{ACAD_REACTORS
330
43
102
}
102
{ACAD_XDICTIONARY
360
39B
102
}
330
43
100
AcDbMaterial
  1
ByLayer
  0
MATERIAL
  5
46
102
{ACAD_REACTORS
330
43
102
}
102
{ACAD_XDICTIONARY
360
39F
102
}
330
43
100
AcDbMaterial
  1
Global
  0
MLINESTYLE
  5
18
102
{ACAD_REACTORS
330
17
102
}
330
17
100
AcDbMlineStyle
  2
Standard
 70
     0
  3

 62
   256
 51
90.0
 52
90.0
 71
     2
 49
0.5
 62
   256
  6
BYLAYER
 49
-0.5
 62
   256
  6
BYLAYER
  0
ACDBPLACEHOLDER
  5
F
102
{ACAD_REACTORS
330
E
102
}
330
E
  0
SCALE
  5
48
102
{ACAD_REACTORS
330
47
102
}
330
47
100
AcDbScale
 70
     0
300
1:1
140
1.0
141
1.0
290
     1
  0
SCALE
  5
49
102
{ACAD_REACTORS
330
47
102
}
330
47
100
AcDbScale
 70
     0
300
1:2
140
1.0
141
2.0
290
     0
  0
SCALE
  5
4A
102
{ACAD_REACTORS
330
47
102
}
330
47
100
AcDbScale
 70
     0
300
1:4
140
1.0
141
4.0
290
     0
  0
SCALE
  5
4B
102
{ACAD_REACTORS
330
47
102
}
330
47
100
AcDbScale
 70
     0
300
1:5
140
1.0
141
5.0
290
     0
  0
SCALE
  5
4C
102
{ACAD_REACTORS
330
47
102
}
330
47
100
AcDbScale
 70
     0
300
1:8
140
1.0
141
8.0
290
     0
  0
SCALE
  5
4D
102
{ACAD_REACTORS
330
47
102
}
330
47
100
AcDbScale
 70
     0
300
1:10
140
1.0
141
10.0
290
     0
  0
SCALE
  5
4E
102
{ACAD_REACTORS
330
47
102
}
330
47
100
AcDbScale
 70
     0
300
1:16
140
1.0
141
16.0
290
     0
  0
SCALE
  5
4F
102
{ACAD_REACTORS
330
47
102
}
330
47
100
AcDbScale
 70
     0
300
1:20
140
1.0
141
20.0
290
     0
  0
SCALE
  5
50
102
{ACAD_REACTORS
330
47
102
}
330
47
100
AcDbScale
 70
     0
300
1:30
140
1.0
141
30.0
290
     0
  0
SCALE
  5
51
102
{ACAD_REACTORS
330
47
102
}
330
47
100
AcDbScale
 70
     0
300
1:40
140
1.0
141
40.0
290
     0
  0
SCALE
  5
52
102
{ACAD_REACTORS
330
47
102
}
330
47
100
AcDbScale
 70
     0
300
1:50
140
1.0
141
50.0
290
     0
  0
SCALE
  5
53
102
{ACAD_REACTORS
330
47
102
}
330
47
100
AcDbScale
 70
     0
300
1:100
140
1.0
141
100.0
290
     0
  0
SCALE
  5
54
102
{ACAD_REACTORS
330
47
102
}
330
47
100
AcDbScale
 70
     0
300
2:1
140
2.0
141
1.0
290
     0
  0
SCALE
  5
55
102
{ACAD_REACTORS
330
47
102
}
330
47
100
AcDbScale
 70
     0
300
4:1
140
4.0
141
1.0
290
     0
  0
SCALE
  5
56
102
{ACAD_REACTORS
330
47
102
}
330
47
100
AcDbScale
 70
     0
300
8:1
140
8.0
141
1.0
290
     0
  0
SCALE
  5
57
102
{ACAD_REACTORS
330
47
102
}
330
47
100
AcDbScale
 70
     0
300
10:1
140
10.0
141
1.0
290
     0
  0
SCALE
  5
58
102
{ACAD_REACTORS
330
47
102
}
330
47
100
AcDbScale
 70
     0
300
100:1
140
100.0
141
1.0
290
     0
  0
SCALE
  5
59
102
{ACAD_REACTORS
330
47
102
}
330
47
100
AcDbScale
 70
     0
300
1/128" = 1'-0"
140
0.0078125
141
12.0
290
     0
  0
SCALE
  5
5A
102
{ACAD_REACTORS
330
47
102
}
330
47
100
AcDbScale
 70
     0
300
1/64" = 1'-0"
140
0.015625
141
12.0
290
     0
  0
SCALE
  5
5B
102
{ACAD_REACTORS
330
47
102
}
330
47
100
AcDbScale
 70
     0
300
1/32" = 1'-0"
140
0.03125
141
12.0
290
     0
  0
SCALE
  5
5C
102
{ACAD_REACTORS
330
47
102
}
330
47
100
AcDbScale
 70
     0
300
1/16" = 1'-0"
140
0.0625
141
12.0
290
     0
  0
SCALE
  5
5D
102
{ACAD_REACTORS
330
47
102
}
330
47
100
AcDbScale
 70
     0
300
3/32" = 1'-0"
140
0.09375
141
12.0
290
     0
  0
SCALE
  5
5E
102
{ACAD_REACTORS
330
47
102
}
330
47
100
AcDbScale
 70
     0
300
1/8" = 1'-0"
140
0.125
141
12.0
290
     0
  0
SCALE
  5
5F
102
{ACAD_REACTORS
330
47
102
}
330
47
100
AcDbScale
 70
     0
300
3/16" = 1'-0"
140
0.1875
141
12.0
290
     0
  0
SCALE
  5
60
102
{ACAD_REACTORS
330
47
102
}
330
47
100
AcDbScale
 70
     0
300
1/4" = 1'-0"
140
0.25
141
12.0
290
     0
  0
SCALE
  5
61
102
{ACAD_REACTORS
330
47
102
}
330
47
100
AcDbScale
 70
     0
300
3/8" = 1'-0"
140
0.375
141
12.0
290
     0
  0
SCALE
  5
62
102
{ACAD_REACTORS
330
47
102
}
330
47
100
AcDbScale
 70
     0
300
1/2" = 1'-0"
140
0.5
141
12.0
290
     0
  0
SCALE
  5
63
102
{ACAD_REACTORS
330
47
102
}
330
47
100
AcDbScale
 70
     0
300
3/4" = 1'-0"
140
0.75
141
12.0
290
     0
  0
SCALE
  5
64
102
{ACAD_REACTORS
330
47
102
}
330
47
100
AcDbScale
 70
     0
300
1" = 1'-0"
140
1.0
141
12.0
290
     0
  0
SCALE
  5
65
102
{ACAD_REACTORS
330
47
102
}
330
47
100
AcDbScale
 70
     0
300
1-1/2" = 1'-0"
140
1.5
141
12.0
290
     0
  0
SCALE
  5
66
102
{ACAD_REACTORS
330
47
102
}
330
47
100
AcDbScale
 70
     0
300
3" = 1'-0"
140
3.0
141
12.0
290
     0
  0
SCALE
  5
67
102
{ACAD_REACTORS
330
47
102
}
330
47
100
AcDbScale
 70
     0
300
6" = 1'-0"
140
6.0
141
12.0
290
     0
  0
SCALE
  5
68
102
{ACAD_REACTORS
330
47
102
}
330
47
100
AcDbScale
 70
     0
300
1'-0" = 1'-0"
140
12.0
141
12.0
290
     0
  0
VISUALSTYLE
  5
2F
102
{ACAD_REACTORS
330
2A
102
}
102
{ACAD_XDICTIONARY
360
373
102
}
330
2A
100
AcDbVisualStyle
  2
2dWireframe
 70
     4
 71
     0
 72
     2
 73
     0
 90
        0
 40
0.6
 41
30.0
 62
     5
 63
     7
 74
     1
 91
        4
 64
     7
 65
   257
 75
     1
175
     1
 42
1.0
 92
        0
 66
   257
 43
1.0
 76
     1
 77
     6
 78
     2
 67
     7
 79
     5
170
     0
171
     0
290
     0
174
     0
 93
        1
 44
0.0
173
     0
291
     0
 45
0.0
1001
ACAD
1000
AcDbSavedByObjectVersion
1070
     0
  0
VISUALSTYLE
  5
32
102
{ACAD_REACTORS
330
2A
102
}
102
{ACAD_XDICTIONARY
360
379
102
}
330
2A
100
AcDbVisualStyle
  2
Basic
 70
     7
 71
     1
 72
     0
 73
     1
 90
        0
 40
0.6
 41
30.0
 62
     5
 63
     7
 74
     0
 91
        4
 64
     7
 65
   257
 75
     1
175
     1
 42
1.0
 92
        8
 66
     7
 43
1.0
 76
     1
 77
     6
 78
     2
 67
     7
 79
     5
170
     0
171
     0
290
     0
174
     0
 93
        1
 44
0.0
173
     0
291
     1
 45
0.0
1001
ACAD
1000
AcDbSavedByObjectVersion
1070
     0
  0
VISUALSTYLE
  5
36
102
{ACAD_REACTORS
330
2A
102
}
102
{ACAD_XDICTIONARY
360
381
102
}
330
2A
100
AcDbVisualStyle
  2
Brighten
 70
    12
 71
     2
 72
     2
 73
     0
 90
        0
 40
0.6
 41
30.0
 62
     5
 63
     7
 74
     1
 91
        4
 64
     7
 65
   257
 75
     1
175
     1
 42
1.0
 92
        8
 66
     7
 43
1.0
 76
     1
 77
     6
 78
     2
 67
     7
 79
     5
170
     0
171
     0
290
     0
174
     0
 93
        1
 44
50.0
173
     0
291
     1
 45
0.0
1001
ACAD
1000
AcDbSavedByObjectVersion
1070
     0
  0
VISUALSTYLE
  5
3A
102
{ACAD_REACTORS
330
2A
102
}
102
{ACAD_XDICTIONARY
360
389
102
}
330
2A
100
AcDbVisualStyle
  2
ColorChange
 70
    16
 71
     2
 72
     2
 73
     3
 90
        0
 40
0.6
 41
30.0
 62
     5
 63
     8
 74
     1
 91
        4
 64
     7
 65
   257
 75
     1
175
     1
 42
1.0
 92
        8
 66
     8
 43
1.0
 76
     1
 77
     6
 78
     2
 67
     7
 79
     5
170
     0
171
     0
290
     0
174
     0
 93
        1
 44
0.0
173
     0
291
     1
 45
0.0
1001
ACAD
1000
AcDbSavedByObjectVersion
1070
     0
  0
VISUALSTYLE
  5
34
102
{ACAD_REACTORS
330
2A
102
}
102
{ACAD_XDICTIONARY
360
37D
102
}
330
2A
100
AcDbVisualStyle
  2
Conceptual
 70
     9
 71
     3
 72
     2
 73
     0
 90
        0
 40
0.6
 41
30.0
 62
     5
 63
     7
 74
     2
 91
        2
 64
     7
 65
   257
 75
     1
175
     1
 42
179.0
 92
        8
 66
     7
 43
1.0
 76
     1
 77
     6
 78
     2
 67
     7
 79
     3
170
     0
171
     0
290
     0
174
     0
 93
        1
 44
0.0
173
     0
291
     0
 45
0.0
1001
ACAD
1000
AcDbSavedByObjectVersion
1070
     0
  0
VISUALSTYLE
  5
35
102
{ACAD_REACTORS
330
2A
102
}
102
{ACAD_XDICTIONARY
360
37F
102
}
330
2A
100
AcDbVisualStyle
  2
Dim
 70
    11
 71
     2
 72
     2
 73
     0
 90
        0
 40
0.6
 41
30.0
 62
     5
 63
     7
 74
     1
 91
        4
 64
     7
 65
   257
 75
     1
175
     1
 42
1.0
 92
        8
 66
     7
 43
1.0
 76
     1
 77
     6
 78
     2
 67
     7
 79
     5
170
     0
171
     0
290
     0
174
     0
 93
        1
 44
-50.0
173
     0
291
     1
 45
0.0
1001
ACAD
1000
AcDbSavedByObjectVersion
1070
     0
  0
VISUALSTYLE
  5
3D
102
{ACAD_REACTORS
330
2A
102
}
102
{ACAD_XDICTIONARY
360
38F
102
}
330
2A
100
AcDbVisualStyle
  2
EdgeColorOff
 70
    22
 71
     2
 72
     2
 73
     0
 90
        0
 40
0.6
 41
30.0
 62
     5
 63
     7
 74
     1
 91
        4
 64
     7
 65
   257
 75
     1
175
     1
 42
1.0
 92
        8
 66
     7
 43
1.0
 76
     1
 77
     6
 78
     2
 67
     7
 79
     5
170
     0
171
     0
290
     0
174
     0
 93
        1
 44
0.0
173
     0
291
     1
 45
0.0
1001
ACAD
1000
AcDbSavedByObjectVersion
1070
     0
  0
VISUALSTYLE
  5
39
102
{ACAD_REACTORS
330
2A
102
}
102
{ACAD_XDICTIONARY
360
387
102
}
330
2A
100
AcDbVisualStyle
  2
Facepattern
 70
    15
 71
     2
 72
     2
 73
     0
 90
        0
 40
0.6
 41
30.0
 62
     5
 63
     7
 74
     1
 91
        4
 64
     7
 65
   257
 75
     1
175
     1
 42
1.0
 92
        8
 66
     7
 43
1.0
 76
     1
 77
     6
 78
     2
 67
     7
 79
     5
170
     0
171
     0
290
     0
174
     0
 93
        1
 44
0.0
173
     0
291
     1
 45
0.0
1001
ACAD
1000
AcDbSavedByObjectVersion
1070
     0
  0
VISUALSTYLE
  5
2B
102
{ACAD_REACTORS
330
2A
102
}
102
{ACAD_XDICTIONARY
360
36B
102
}
330
2A
100
AcDbVisualStyle
  2
Flat
 70
     0
 71
     2
 72
     1
 73
     1
 90
        2
 40
0.6
 41
30.0
 62
     5
 63
     7
 74
     0
 91
        0
 64
     7
 65
   257
 75
     1
175
     1
 42
1.0
 92
        8
 66
     7
 43
1.0
 76
     1
 77
     6
 78
     2
 67
     7
 79
     5
170
     0
171
     0
290
     0
174
     0
 93
       13
 44
0.0
173
     0
291
     1
 45
0.0
1001
ACAD
1000
AcDbSavedByObjectVersion
1070
     0
  0
VISUALSTYLE
  5
2C
102
{ACAD_REACTORS
330
2A
102
}
102
{ACAD_XDICTIONARY
360
36D
102
}
330
2A
100
AcDbVisualStyle
  2
FlatWithEdges
 70
     1
 71
     2
 72
     1
 73
     1
 90
        2
 40
0.6
 41
30.0
 62
     5
 63
     7
 74
     1
 91
        0
 64
     7
 65
   257
 75
     1
175
     1
 42
1.0
 92
        0
 66
   257
 43
1.0
 76
     1
 77
     6
 78
     2
 67
     7
 79
     5
170
     0
171
     0
290
     0
174
     0
 93
       13
 44
0.0
173
     0
291
     1
 45
0.0
1001
ACAD
1000
AcDbSavedByObjectVersion
1070
     0
  0
VISUALSTYLE
  5
2D
102
{ACAD_REACTORS
330
2A
102
}
102
{ACAD_XDICTIONARY
360
36F
102
}
330
2A
100
AcDbVisualStyle
  2
Gouraud
 70
     2
 71
     2
 72
     2
 73
     1
 90
        2
 40
0.6
 41
30.0
 62
     5
 63
     7
 74
     0
 91
        0
 64
     7
 65
   257
 75
     1
175
     1
 42
1.0
 92
        0
 66
     7
 43
1.0
 76
     1
 77
     6
 78
     2
 67
     7
 79
     5
170
     0
171
     0
290
     0
174
     0
 93
       13
 44
0.0
173
     0
291
     1
 45
0.0
1001
ACAD
1000
AcDbSavedByObjectVersion
1070
     0
  0
VISUALSTYLE
  5
2E
102
{ACAD_REACTORS
330
2A
102
}
102
{ACAD_XDICTIONARY
360
371
102
}
330
2A
100
AcDbVisualStyle
  2
GouraudWithEdges
 70
     3
 71
     2
 72
     2
 73
     1
 90
        2
 40
0.6
 41
30.0
 62
     5
 63
     7
 74
     1
 91
        0
 64
     7
 65
   257
 75
     1
175
     1
 42
1.0
 92
        0
 66
   257
 43
1.0
 76
     1
 77
     6
 78
     2
 67
     7
 79
     5
170
     0
171
     0
290
     0
174
     0
 93
       13
 44
0.0
173
     0
291
     1
 45
0.0
1001
ACAD
1000
AcDbSavedByObjectVersion
1070
     0
  0
VISUALSTYLE
  5
31
102
{ACAD_REACTORS
330
2A
102
}
102
{ACAD_XDICTIONARY
360
377
102
}
330
2A
100
AcDbVisualStyle
  2
Hidden
 70
     6
 71
     1
 72
     2
 73
     2
 90
        0
 40
0.6
 41
30.0
 62
     5
 63
     7
 74
     2
 91
        2
 64
     7
 65
   257
 75
     2
175
     1
 42
40.0
 92
        0
 66
   257
 43
1.0
 76
     1
 77
     6
 78
     2
 67
     7
 79
     3
170
     0
171
     0
290
     0
174
     0
 93
        1
 44
0.0
173
     0
291
     0
 45
0.0
1001
ACAD
1000
AcDbSavedByObjectVersion
1070
     0
  0
VISUALSTYLE
  5
3B
102
{ACAD_REACTORS
330
2A
102
}
102
{ACAD_XDICTIONARY
360
38B
102
}
330
2A
100
AcDbVisualStyle
  2
JitterOff
 70
    20
 71
     2
 72
     2
 73
     0
 90
        0
 40
0.6
 41
30.0
 62
     5
 63
     7
 74
     1
 91
        4
 64
     7
 65
   257
 75
     1
175
     1
 42
1.0
 92
       10
 66
     7
 43
1.0
 76
     1
 77
     6
 78
     2
 67
     7
 79
     5
170
     0
171
     0
290
     0
174
     0
 93
        1
 44
0.0
173
     0
291
     1
 45
0.0
1001
ACAD
1000
AcDbSavedByObjectVersion
1070
     0
  0
VISUALSTYLE
  5
38
102
{ACAD_REACTORS
330
2A
102
}
102
{ACAD_XDICTIONARY
360
385
102
}
330
2A
100
AcDbVisualStyle
  2
Linepattern
 70
    14
 71
     2
 72
     2
 73
     0
 90
        0
 40
0.6
 41
30.0
 62
     5
 63
     7
 74
     1
 91
        4
 64
     7
 65
   257
 75
     7
175
     7
 42
1.0
 92
        8
 66
     7
 43
1.0
 76
     1
 77
     6
 78
     2
 67
     7
 79
     5
170
     0
171
     0
290
     0
174
     0
 93
        1
 44
0.0
173
     0
291
     1
 45
0.0
1001
ACAD
1000
AcDbSavedByObjectVersion
1070
     0
  0
VISUALSTYLE
  5
3C
102
{ACAD_REACTORS
330
2A
102
}
102
{ACAD_XDICTIONARY
360
38D
102
}
330
2A
100
AcDbVisualStyle
  2
OverhangOff
 70
    21
 71
     2
 72
     2
 73
     0
 90
        0
 40
0.6
 41
30.0
 62
     5
 63
     7
 74
     1
 91
        4
 64
     7
 65
   257
 75
     1
175
     1
 42
1.0
 92
        9
 66
     7
 43
1.0
 76
     1
 77
     6
 78
     2
 67
     7
 79
     5
170
     0
171
     0
290
     0
174
     0
 93
        1
 44
0.0
173
     0
291
     1
 45
0.0
1001
ACAD
1000
AcDbSavedByObjectVersion
1070
     0
  0
VISUALSTYLE
  5
33
102
{ACAD_REACTORS
330
2A
102
}
102
{ACAD_XDICTIONARY
360
37B
102
}
330
2A
100
AcDbVisualStyle
  2
Realistic
 70
     8
 71
     2
 72
     3
 73
     0
 90
        2
 40
0.6
 41
30.0
 62
     5
 63
     7
 74
     0
 91
        0
 64
     7
 65
   257
 75
     1
175
     1
 42
1.0
 92
        8
 66
   257
 43
1.0
 76
     1
 77
     6
 78
     2
 67
     7
 79
     3
170
     0
171
     0
290
     0
174
     0
 93
       13
 44
0.0
173
     0
291
     0
 45
0.0
1001
ACAD
1000
AcDbSavedByObjectVersion
1070
     0
  0
VISUALSTYLE
  5
42
102
{ACAD_REACTORS
330
2A
102
}
102
{ACAD_XDICTIONARY
360
399
102
}
330
2A
100
AcDbVisualStyle
  2
Shaded
 70
    27
 71
     2
 72
     2
 73
     1
 90
        2
 40
0.6
 41
30.0
 62
     5
 63
     7
 74
     0
 91
        4
 64
     7
 65
   257
 75
     1
175
     1
 42
1.0
 92
        8
 66
   257
 43
1.0
 76
     1
 77
     6
 78
     2
 67
     8
 79
     3
170
     0
171
     0
290
     0
174
     0
 93
        5
 44
0.0
173
     0
291
     0
 45
0.0
1001
ACAD
1000
AcDbSavedByObjectVersion
1070
     0
  0
VISUALSTYLE
  5
41
102
{ACAD_REACTORS
330
2A
102
}
102
{ACAD_XDICTIONARY
360
397
102
}
330
2A
100
AcDbVisualStyle
  2
Shaded with edges
 70
    26
 71
     2
 72
     2
 73
     1
 90
        2
 40
0.6
 41
30.0
 62
     5
 63
     7
 74
     1
 91
       10
 64
     7
 65
   257
 75
     2
175
     1
 42
1.0
 92
        8
 66
   257
 43
1.0
 76
     1
 77
     6
 78
     2
 67
     7
 79
     3
170
     0
171
     0
290
     0
174
     0
 93
        5
 44
0.0
173
     0
291
     0
 45
0.0
1001
ACAD
1000
AcDbSavedByObjectVersion
1070
     0
  0
VISUALSTYLE
  5
3E
102
{ACAD_REACTORS
330
2A
102
}
102
{ACAD_XDICTIONARY
360
391
102
}
330
2A
100
AcDbVisualStyle
  2
Shades of Gray
 70
    23
 71
     2
 72
     2
 73
     3
 90
        0
 40
0.6
 41
30.0
 62
     5
 63
     7
 74
     2
 91
        2
 64
     7
 65
     7
 75
     1
175
     1
 42
40.0
 92
        8
 66
     7
 43
1.0
 76
     1
 77
     6
 78
     2
 67
     7
 79
     3
170
     0
171
     0
290
     0
174
     0
 93
        1
 44
0.0
173
     0
291
     0
 45
0.0
1001
ACAD
1000
AcDbSavedByObjectVersion
1070
     0
  0
VISUALSTYLE
  5
3F
102
{ACAD_REACTORS
330
2A
102
}
102
{ACAD_XDICTIONARY
360
393
102
}
330
2A
100
AcDbVisualStyle
  2
Sketchy
 70
    24
 71
     1
 72
     2
 73
     2
 90
        0
 40
0.6
 41
30.0
 62
     5
 63
     7
 74
     2
 91
        2
 64
     7
 65
     7
 75
     1
175
     1
 42
40.0
 92
       11
 66
     7
 43
1.0
 76
     1
 77
     6
 78
     2
 67
     7
 79
     6
170
     0
171
     0
290
     0
174
     0
 93
        1
 44
0.0
173
     0
291
     0
 45
0.0
1001
ACAD
1000
AcDbSavedByObjectVersion
1070
     0
  0
VISUALSTYLE
  5
37
102
{ACAD_REACTORS
330
2A
102
}
102
{ACAD_XDICTIONARY
360
383
102
}
330
2A
100
AcDbVisualStyle
  2
Thicken
 70
    13
 71
     2
 72
     2
 73
     0
 90
        0
 40
0.6
 41
30.0
 62
     5
 63
     7
 74
     1
 91
        4
 64
     7
 65
   257
 75
     1
175
     1
 42
1.0
 92
       12
 66
     7
 43
1.0
 76
     1
 77
     6
 78
     2
 67
     7
 79
     5
170
     0
171
     0
290
     0
174
     0
 93
        1
 44
0.0
173
     0
291
     1
 45
0.0
1001
ACAD
1000
AcDbSavedByObjectVersion
1070
     0
  0
VISUALSTYLE
  5
30
102
{ACAD_REACTORS
330
2A
102
}
102
{ACAD_XDICTIONARY
360
375
102
}
330
2A
100
AcDbVisualStyle
  2
Wireframe
 70
     5
 71
     0
 72
     2
 73
     0
 90
        0
 40
0.6
 41
30.0
 62
     5
 63
     7
 74
     1
 91
        4
 64
     7
 65
   257
 75
     1
175
     1
 42
1.0
 92
        0
 66
   257
 43
1.0
 76
     1
 77
     6
 78
     2
 67
     7
 79
     3
170
     0
171
     0
290
     0
174
     0
 93
        1
 44
0.0
173
     0
291
     0
 45
0.0
1001
ACAD
1000
AcDbSavedByObjectVersion
1070
     0
  0
VISUALSTYLE
  5
40
102
{ACAD_REACTORS
330
2A
102
}
102
{ACAD_XDICTIONARY
360
395
102
}
330
2A
100
AcDbVisualStyle
  2
X-Ray
 70
    25
 71
     2
 72
     2
 73
     1
 90
        1
 40
0.5
 41
30.0
 62
     5
 63
     7
 74
     1
 91
        0
 64
     7
 65
   257
 75
     1
175
     1
 42
1.0
 92
        8
 66
     7
 43
1.0
 76
     1
 77
     6
 78
     2
 67
     7
 79
     3
170
     0
171
     0
290
     0
174
     0
 93
       13
 44
0.0
173
     0
291
     0
 45
0.0
1001
ACAD
1000
AcDbSavedByObjectVersion
1070
     0
  0
DICTIONARYVAR
  5
369
102
{ACAD_REACTORS
330
362
102
}
330
362
100
DictionaryVariables
280
     0
  1
1:1
  0
DICTIONARYVAR
  5
367
102
{ACAD_REACTORS
330
362
102
}
330
362
100
DictionaryVariables
280
     0
  1
2
  0
DICTIONARYVAR
  5
368
102
{ACAD_REACTORS
330
362
102
}
330
362
100
DictionaryVariables
280
     0
  1
1
  0
DICTIONARYVAR
  5
36A
102
{ACAD_REACTORS
330
362
102
}
330
362
100
DictionaryVariables
280
     0
  1
1
  0
DICTIONARY
  5
39D
330
45
100
AcDbDictionary
280
     1
281
     1
  3
ACAD_XREC_ROUNDTRIP
360
39E
  0
DICTIONARY
  5
39B
330
44
100
AcDbDictionary
280
     1
281
     1
  3
ACAD_XREC_ROUNDTRIP
360
39C
  0
DICTIONARY
  5
39F
330
46
100
AcDbDictionary
280
     1
281
     1
  3
ACAD_XREC_ROUNDTRIP
360
3A0
  0
DICTIONARY
  5
373
330
2F
100
AcDbDictionary
280
     1
281
     1
  3
ACAD_XREC_ROUNDTRIP
360
374
  0
DICTIONARY
  5
379
330
32
100
AcDbDictionary
280
     1
281
     1
  3
ACAD_XREC_ROUNDTRIP
360
37A
  0
DICTIONARY
  5
381
330
36
100
AcDbDictionary
280
     1
281
     1
  3
ACAD_XREC_ROUNDTRIP
360
382
  0
DICTIONARY
  5
389
330
3A
100
AcDbDictionary
280
     1
281
     1
  3
ACAD_XREC_ROUNDTRIP
360
38A
  0
DICTIONARY
  5
37D
330
34
100
AcDbDictionary
280
     1
281
     1
  3
ACAD_XREC_ROUNDTRIP
360
37E
  0
DICTIONARY
  5
37F
330
35
100
AcDbDictionary
280
     1
281
     1
  3
ACAD_XREC_ROUNDTRIP
360
380
  0
DICTIONARY
  5
38F
330
3D
100
AcDbDictionary
280
     1
281
     1
  3
ACAD_XREC_ROUNDTRIP
360
390
  0
DICTIONARY
  5
387
330
39
100
AcDbDictionary
280
     1
281
     1
  3
ACAD_XREC_ROUNDTRIP
360
388
  0
DICTIONARY
  5
36B
330
2B
100
AcDbDictionary
280
     1
281
     1
  3
ACAD_XREC_ROUNDTRIP
360
36C
  0
DICTIONARY
  5
36D
330
2C
100
AcDbDictionary
280
     1
281
     1
  3
ACAD_XREC_ROUNDTRIP
360
36E
  0
DICTIONARY
  5
36F
330
2D
100
AcDbDictionary
280
     1
281
     1
  3
ACAD_XREC_ROUNDTRIP
360
370
  0
DICTIONARY
  5
371
330
2E
100
AcDbDictionary
280
     1
281
     1
  3
ACAD_XREC_ROUNDTRIP
360
372
  0
DICTIONARY
  5
377
330
31
100
AcDbDictionary
280
     1
281
     1
  3
ACAD_XREC_ROUNDTRIP
360
378
  0
DICTIONARY
  5
38B
330
3B
100
AcDbDictionary
280
     1
281
     1
  3
ACAD_XREC_ROUNDTRIP
360
38C
  0
DICTIONARY
  5
385
330
38
100
AcDbDictionary
280
     1
281
     1
  3
ACAD_XREC_ROUNDTRIP
360
386
  0
DICTIONARY
  5
38D
330
3C
100
AcDbDictionary
280
     1
281
     1
  3
ACAD_XREC_ROUNDTRIP
360
38E
  0
DICTIONARY
  5
37B
330
33
100
AcDbDictionary
280
     1
281
     1
  3
ACAD_XREC_ROUNDTRIP
360
37C
  0
DICTIONARY
  5
399
330
42
100
AcDbDictionary
280
     1
281
     1
  3
ACAD_XREC_ROUNDTRIP
360
39A
  0
DICTIONARY
  5
397
330
41
100
AcDbDictionary
280
     1
281
     1
  3
ACAD_XREC_ROUNDTRIP
360
398
  0
DICTIONARY
  5
391
330
3E
100
AcDbDictionary
280
     1
281
     1
  3
ACAD_XREC_ROUNDTRIP
360
392
  0
DICTIONARY
  5
393
330
3F
100
AcDbDictionary
280
     1
281
     1
  3
ACAD_XREC_ROUNDTRIP
360
394
  0
DICTIONARY
  5
383
330
37
100
AcDbDictionary
280
     1
281
     1
  3
ACAD_XREC_ROUNDTRIP
360
384
  0
DICTIONARY
  5
375
330
30
100
AcDbDictionary
280
     1
281
     1
  3
ACAD_XREC_ROUNDTRIP
360
376
  0
DICTIONARY
  5
395
330
40
100
AcDbDictionary
280
     1
281
     1
  3
ACAD_XREC_ROUNDTRIP
360
396
  0
XRECORD
  5
39E
102
{ACAD_REACTORS
330
39D
102
}
330
39D
100
AcDbXrecord
280
     1
102
MATERIAL
148
0.0
149
0.0
149
0.0
 93
        0
 94
      127
282
     0
 72
     1
 77
     1
171
     1
175
     1
179
     1
273
     0
  0
XRECORD
  5
39C
102
{ACAD_REACTORS
330
39B
102
}
330
39B
100
AcDbXrecord
280
     1
102
MATERIAL
148
0.0
149
0.0
149
0.0
 93
        0
 94
      127
282
     0
 72
     1
 77
     1
171
     1
175
     1
179
     1
273
     0
  0
XRECORD
  5
3A0
102
{ACAD_REACTORS
330
39F
102
}
330
39F
100
AcDbXrecord
280
     1
102
MATERIAL
148
0.0
149
0.0
149
0.0
 93
        0
 94
      127
282
     0
 72
     1
 77
     1
171
     1
175
     1
179
     1
273
     0
  0
XRECORD
  5
374
102
{ACAD_REACTORS
330
373
102
}
330
373
100
AcDbXrecord
280
     1
102
RTVSPropertyOp0
 70
     1
102
RTVSPropertyOp1
 70
     1
102
RTVSPropertyOp2
 70
     1
102
RTVSPropertyOp3
 70
     1
102
RTVSPropertyOp4
 70
     1
102
RTVSPropertyOp5
 70
     1
102
RTVSPropertyOp6
 70
     1
102
RTVSPropertyOp7
 70
     1
102
RTVSPropertyOp8
 70
     1
102
RTVSPropertyOp9
 70
     1
102
RTVSPropertyOp10
 70
     1
102
RTVSPropertyOp11
 70
     1
102
RTVSPropertyOp12
 70
     1
102
RTVSPropertyOp13
 70
     1
102
RTVSPropertyOp14
 70
     1
102
RTVSPropertyOp15
 70
     1
102
RTVSPropertyOp16
 70
     1
102
RTVSPropertyOp17
 70
     1
102
RTVSPropertyOp18
 70
     1
102
RTVSPropertyOp19
 70
     1
102
RTVSPropertyOp20
 70
     1
102
RTVSPropertyOp21
 70
     1
102
RTVSPropertyOp22
 70
     1
102
RTVSPropertyOp23
 70
     1
102
RTVSPropertyOp24
 70
     1
102
RTVSPropertyOp25
 70
     1
102
RTVSPropertyOp26
 70
     1
102
RTVSPropertyOp27
 70
     1
102
RTVSPropertyOp28
 70
     1
102
RTVSPropertyOp29
 70
     1
102
RTVSPropertyOp30
 70
     1
102
RTVSPropertyOp31
 70
     1
102
RTVSPropertyOp32
 70
     1
102
RTVSPropertyOp33
 70
     1
102
RTVSPropertyOp34
 70
     1
102
RTVSPropertyOp35
 70
     1
102
RTVSPropertyOp36
 70
     1
102
RTVSPropertyOp37
 70
     1
102
RTVSPropertyOp38
 70
     1
102
RTVSPropertyOp39
 70
     1
102
RTVSPropertyOp40
 70
     1
102
RTVSPropertyOp41
 70
     1
102
RTVSPropertyOp42
 70
     1
102
RTVSPropertyOp43
 70
     1
102
RTVSPropertyOp44
 70
     1
102
RTVSPropertyOp45
 70
     1
102
RTVSPropertyOp46
 70
     1
102
RTVSPropertyOp47
 70
     1
102
RTVSPropertyOp48
 70
     1
102
RTVSPropertyOp49
 70
     1
102
RTVSPropertyOp50
 70
     1
102
RTVSPropertyOp51
 70
     0
102
RTVSPropertyOp52
 70
     0
102
RTVSPropertyOp53
 70
     1
102
RTVSPropertyOp54
 70
     1
102
RTVSPropertyOp55
 70
     1
102
RTVSPropertyOp56
 70
     1
102
RTVSPropertyOp57
 70
     1
102
RTVSPost2010Prop28
280
     1
102
RTVSPost2010PropOp28
 70
     1
102
RTVSPost2010Prop29
280
     1
102
RTVSPost2010PropOp29
 70
     1
102
RTVSPost2010Prop30
280
     0
102
RTVSPost2010PropOp30
 70
     1
102
RTVSPost2010Prop31
280
     0
102
RTVSPost2010PropOp31
 70
     1
102
RTVSPost2010Prop32
280
     0
102
RTVSPost2010PropOp32
 70
     1
102
RTVSPost2010Prop33
280
     0
102
RTVSPost2010PropOp33
 70
     1
102
RTVSPost2010Prop34
280
     0
102
RTVSPost2010PropOp34
 70
     1
102
RTVSPost2010Prop35
280
     0
102
RTVSPost2010PropOp35
 70
     1
102
RTVSPost2010Prop36
280
     0
102
RTVSPost2010PropOp36
 70
     1
102
RTVSPost2010Prop37
 90
       50
102
RTVSPost2010PropOp37
 70
     1
102
RTVSPost2010Prop38
140
0.0
102
RTVSPost2010PropOp38
 70
     1
102
RTVSPost2010Prop39
140
1.0
102
RTVSPost2010PropOp39
 70
     1
102
RTVSPost2010Prop40
 90
        0
102
RTVSPost2010PropOp40
 70
     1
102
RTVSPost2010Prop41ColorIndex
 90
       18
102
RTVSPost2010Prop41ColorRGB
 90
        0
102
RTVSPost2010PropOp41
 70
     1
102
RTVSPost2010Prop42
 90
       50
102
RTVSPost2010PropOp42
 70
     1
102
RTVSPost2010Prop43
 90
        3
102
RTVSPost2010PropOp43
 70
     1
102
RTVSPost2010Prop44ColorIndex
 90
        5
102
RTVSPost2010Prop44ColorRGB
 90
      255
102
RTVSPost2010PropOp44
 70
     1
102
RTVSPost2010Prop45
280
     0
102
RTVSPost2010PropOp45
 70
     1
102
RTVSPost2010Prop46
 90
       50
102
RTVSPost2010PropOp46
 70
     1
102
RTVSPost2010Prop47
 90
       50
102
RTVSPost2010PropOp47
 70
     1
102
RTVSPost2010Prop48
 90
       50
102
RTVSPost2010PropOp48
 70
     1
102
RTVSPost2010Prop49
280
     0
102
RTVSPost2010PropOp49
 70
     1
102
RTVSPost2010Prop50
 90
       50
102
RTVSPost2010PropOp50
 70
     1
102
RTVSPost2010Prop51ColorIndex
 90
      256
102
RTVSPost2010Prop51ColorRGB
 90
-16777216
102
RTVSPost2010PropOp51
 70
     0
102
RTVSPost2010Prop52
140
1.0
102
RTVSPost2010PropOp52
 70
     0
102
RTVSPost2010Prop53
 90
        2
102
RTVSPost2010PropOp53
 70
     1
102
RTVSPost2010Prop54
  1
strokes_ogs.tif
102
RTVSPost2010PropOp54
 70
     1
102
RTVSPost2010Prop55
280
     0
102
RTVSPost2010PropOp55
 70
     1
102
RTVSPost2010Prop56
140
1.0
102
RTVSPost2010PropOp56
 70
     1
102
RTVSPost2010Prop57
140
1.0
102
RTVSPost2010PropOp57
 70
     1
  0
XRECORD
  5
37A
102
{ACAD_REACTORS
330
379
102
}
330
379
100
AcDbXrecord
280
     1
102
RTVSPropertyOp0
 70
     1
102
RTVSPropertyOp1
 70
     1
102
RTVSPropertyOp2
 70
     1
102
RTVSPropertyOp3
 70
     1
102
RTVSPropertyOp4
 70
     1
102
RTVSPropertyOp5
 70
     1
102
RTVSPropertyOp6
 70
     1
102
RTVSPropertyOp7
 70
     1
102
RTVSPropertyOp8
 70
     1
102
RTVSPropertyOp9
 70
     1
102
RTVSPropertyOp10
 70
     1
102
RTVSPropertyOp11
 70
     1
102
RTVSPropertyOp12
 70
     1
102
RTVSPropertyOp13
 70
     1
102
RTVSPropertyOp14
 70
     1
102
RTVSPropertyOp15
 70
     1
102
RTVSPropertyOp16
 70
     1
102
RTVSPropertyOp17
 70
     1
102
RTVSPropertyOp18
 70
     1
102
RTVSPropertyOp19
 70
     1
102
RTVSPropertyOp20
 70
     1
102
RTVSPropertyOp21
 70
     1
102
RTVSPropertyOp22
 70
     1
102
RTVSPropertyOp23
 70
     1
102
RTVSPropertyOp24
 70
     1
102
RTVSPropertyOp25
 70
     1
102
RTVSPropertyOp26
 70
     1
102
RTVSPropertyOp27
 70
     1
102
RTVSPropertyOp28
 70
     1
102
RTVSPropertyOp29
 70
     1
102
RTVSPropertyOp30
 70
     1
102
RTVSPropertyOp31
 70
     1
102
RTVSPropertyOp32
 70
     1
102
RTVSPropertyOp33
 70
     1
102
RTVSPropertyOp34
 70
     1
102
RTVSPropertyOp35
 70
     1
102
RTVSPropertyOp36
 70
     1
102
RTVSPropertyOp37
 70
     1
102
RTVSPropertyOp38
 70
     1
102
RTVSPropertyOp39
 70
     1
102
RTVSPropertyOp40
 70
     1
102
RTVSPropertyOp41
 70
     1
102
RTVSPropertyOp42
 70
     1
102
RTVSPropertyOp43
 70
     1
102
RTVSPropertyOp44
 70
     1
102
RTVSPropertyOp45
 70
     1
102
RTVSPropertyOp46
 70
     1
102
RTVSPropertyOp47
 70
     1
102
RTVSPropertyOp48
 70
     1
102
RTVSPropertyOp49
 70
     1
102
RTVSPropertyOp50
 70
     1
102
RTVSPropertyOp51
 70
     0
102
RTVSPropertyOp52
 70
     0
102
RTVSPropertyOp53
 70
     1
102
RTVSPropertyOp54
 70
     1
102
RTVSPropertyOp55
 70
     1
102
RTVSPropertyOp56
 70
     1
102
RTVSPropertyOp57
 70
     1
102
RTVSPost2010Prop28
280
     0
102
RTVSPost2010PropOp28
 70
     1
102
RTVSPost2010Prop29
280
     1
102
RTVSPost2010PropOp29
 70
     1
102
RTVSPost2010Prop30
280
     1
102
RTVSPost2010PropOp30
 70
     1
102
RTVSPost2010Prop31
280
     0
102
RTVSPost2010PropOp31
 70
     1
102
RTVSPost2010Prop32
280
     0
102
RTVSPost2010PropOp32
 70
     1
102
RTVSPost2010Prop33
280
     0
102
RTVSPost2010PropOp33
 70
     1
102
RTVSPost2010Prop34
280
     0
102
RTVSPost2010PropOp34
 70
     1
102
RTVSPost2010Prop35
280
     0
102
RTVSPost2010PropOp35
 70
     1
102
RTVSPost2010Prop36
280
     0
102
RTVSPost2010PropOp36
 70
     1
102
RTVSPost2010Prop37
 90
       50
102
RTVSPost2010PropOp37
 70
     1
102
RTVSPost2010Prop38
140
0.0
102
RTVSPost2010PropOp38
 70
     1
102
RTVSPost2010Prop39
140
1.0
102
RTVSPost2010PropOp39
 70
     1
102
RTVSPost2010Prop40
 90
        0
102
RTVSPost2010PropOp40
 70
     1
102
RTVSPost2010Prop41ColorIndex
 90
       18
102
RTVSPost2010Prop41ColorRGB
 90
        0
102
RTVSPost2010PropOp41
 70
     1
102
RTVSPost2010Prop42
 90
       50
102
RTVSPost2010PropOp42
 70
     1
102
RTVSPost2010Prop43
 90
        3
102
RTVSPost2010PropOp43
 70
     1
102
RTVSPost2010Prop44ColorIndex
 90
        5
102
RTVSPost2010Prop44ColorRGB
 90
      255
102
RTVSPost2010PropOp44
 70
     1
102
RTVSPost2010Prop45
280
     0
102
RTVSPost2010PropOp45
 70
     1
102
RTVSPost2010Prop46
 90
       50
102
RTVSPost2010PropOp46
 70
     1
102
RTVSPost2010Prop47
 90
       50
102
RTVSPost2010PropOp47
 70
     1
102
RTVSPost2010Prop48
 90
       50
102
RTVSPost2010PropOp48
 70
     1
102
RTVSPost2010Prop49
280
     0
102
RTVSPost2010PropOp49
 70
     1
102
RTVSPost2010Prop50
 90
       50
102
RTVSPost2010PropOp50
 70
     1
102
RTVSPost2010Prop51ColorIndex
 90
      256
102
RTVSPost2010Prop51ColorRGB
 90
-16777216
102
RTVSPost2010PropOp51
 70
     0
102
RTVSPost2010Prop52
140
1.0
102
RTVSPost2010PropOp52
 70
     0
102
RTVSPost2010Prop53
 90
        2
102
RTVSPost2010PropOp53
 70
     1
102
RTVSPost2010Prop54
  1
strokes_ogs.tif
102
RTVSPost2010PropOp54
 70
     1
102
RTVSPost2010Prop55
280
     0
102
RTVSPost2010PropOp55
 70
     1
102
RTVSPost2010Prop56
140
1.0
102
RTVSPost2010PropOp56
 70
     1
102
RTVSPost2010Prop57
140
1.0
102
RTVSPost2010PropOp57
 70
     1
  0
XRECORD
  5
382
102
{ACAD_REACTORS
330
381
102
}
330
381
100
AcDbXrecord
280
     1
102
RTVSPropertyOp0
 70
     1
102
RTVSPropertyOp1
 70
     1
102
RTVSPropertyOp2
 70
     1
102
RTVSPropertyOp3
 70
     1
102
RTVSPropertyOp4
 70
     1
102
RTVSPropertyOp5
 70
     1
102
RTVSPropertyOp6
 70
     1
102
RTVSPropertyOp7
 70
     1
102
RTVSPropertyOp8
 70
     1
102
RTVSPropertyOp9
 70
     1
102
RTVSPropertyOp10
 70
     1
102
RTVSPropertyOp11
 70
     1
102
RTVSPropertyOp12
 70
     1
102
RTVSPropertyOp13
 70
     1
102
RTVSPropertyOp14
 70
     1
102
RTVSPropertyOp15
 70
     1
102
RTVSPropertyOp16
 70
     1
102
RTVSPropertyOp17
 70
     1
102
RTVSPropertyOp18
 70
     1
102
RTVSPropertyOp19
 70
     1
102
RTVSPropertyOp20
 70
     1
102
RTVSPropertyOp21
 70
     1
102
RTVSPropertyOp22
 70
     1
102
RTVSPropertyOp23
 70
     1
102
RTVSPropertyOp24
 70
     1
102
RTVSPropertyOp25
 70
     1
102
RTVSPropertyOp26
 70
     1
102
RTVSPropertyOp27
 70
     1
102
RTVSPropertyOp28
 70
     1
102
RTVSPropertyOp29
 70
     1
102
RTVSPropertyOp30
 70
     1
102
RTVSPropertyOp31
 70
     1
102
RTVSPropertyOp32
 70
     1
102
RTVSPropertyOp33
 70
     1
102
RTVSPropertyOp34
 70
     1
102
RTVSPropertyOp35
 70
     1
102
RTVSPropertyOp36
 70
     1
102
RTVSPropertyOp37
 70
     1
102
RTVSPropertyOp38
 70
     1
102
RTVSPropertyOp39
 70
     1
102
RTVSPropertyOp40
 70
     1
102
RTVSPropertyOp41
 70
     1
102
RTVSPropertyOp42
 70
     1
102
RTVSPropertyOp43
 70
     1
102
RTVSPropertyOp44
 70
     1
102
RTVSPropertyOp45
 70
     1
102
RTVSPropertyOp46
 70
     1
102
RTVSPropertyOp47
 70
     1
102
RTVSPropertyOp48
 70
     1
102
RTVSPropertyOp49
 70
     1
102
RTVSPropertyOp50
 70
     1
102
RTVSPropertyOp51
 70
     0
102
RTVSPropertyOp52
 70
     0
102
RTVSPropertyOp53
 70
     1
102
RTVSPropertyOp54
 70
     1
102
RTVSPropertyOp55
 70
     1
102
RTVSPropertyOp56
 70
     1
102
RTVSPropertyOp57
 70
     1
102
RTVSPost2010Prop28
280
     0
102
RTVSPost2010PropOp28
 70
     1
102
RTVSPost2010Prop29
280
     1
102
RTVSPost2010PropOp29
 70
     1
102
RTVSPost2010Prop30
280
     1
102
RTVSPost2010PropOp30
 70
     1
102
RTVSPost2010Prop31
280
     0
102
RTVSPost2010PropOp31
 70
     1
102
RTVSPost2010Prop32
280
     0
102
RTVSPost2010PropOp32
 70
     1
102
RTVSPost2010Prop33
280
     0
102
RTVSPost2010PropOp33
 70
     1
102
RTVSPost2010Prop34
280
     0
102
RTVSPost2010PropOp34
 70
     1
102
RTVSPost2010Prop35
280
     0
102
RTVSPost2010PropOp35
 70
     1
102
RTVSPost2010Prop36
280
     0
102
RTVSPost2010PropOp36
 70
     1
102
RTVSPost2010Prop37
 90
       50
102
RTVSPost2010PropOp37
 70
     1
102
RTVSPost2010Prop38
140
0.0
102
RTVSPost2010PropOp38
 70
     1
102
RTVSPost2010Prop39
140
1.0
102
RTVSPost2010PropOp39
 70
     1
102
RTVSPost2010Prop40
 90
        0
102
RTVSPost2010PropOp40
 70
     1
102
RTVSPost2010Prop41ColorIndex
 90
       18
102
RTVSPost2010Prop41ColorRGB
 90
        0
102
RTVSPost2010PropOp41
 70
     1
102
RTVSPost2010Prop42
 90
       50
102
RTVSPost2010PropOp42
 70
     1
102
RTVSPost2010Prop43
 90
        3
102
RTVSPost2010PropOp43
 70
     1
102
RTVSPost2010Prop44ColorIndex
 90
        5
102
RTVSPost2010Prop44ColorRGB
 90
      255
102
RTVSPost2010PropOp44
 70
     1
102
RTVSPost2010Prop45
280
     0
102
RTVSPost2010PropOp45
 70
     1
102
RTVSPost2010Prop46
 90
       50
102
RTVSPost2010PropOp46
 70
     1
102
RTVSPost2010Prop47
 90
       50
102
RTVSPost2010PropOp47
 70
     1
102
RTVSPost2010Prop48
 90
       50
102
RTVSPost2010PropOp48
 70
     1
102
RTVSPost2010Prop49
280
     0
102
RTVSPost2010PropOp49
 70
     1
102
RTVSPost2010Prop50
 90
       50
102
RTVSPost2010PropOp50
 70
     1
102
RTVSPost2010Prop51ColorIndex
 90
      256
102
RTVSPost2010Prop51ColorRGB
 90
-16777216
102
RTVSPost2010PropOp51
 70
     0
102
RTVSPost2010Prop52
140
1.0
102
RTVSPost2010PropOp52
 70
     0
102
RTVSPost2010Prop53
 90
        2
102
RTVSPost2010PropOp53
 70
     1
102
RTVSPost2010Prop54
  1
strokes_ogs.tif
102
RTVSPost2010PropOp54
 70
     1
102
RTVSPost2010Prop55
280
     0
102
RTVSPost2010PropOp55
 70
     1
102
RTVSPost2010Prop56
140
1.0
102
RTVSPost2010PropOp56
 70
     1
102
RTVSPost2010Prop57
140
1.0
102
RTVSPost2010PropOp57
 70
     1
  0
XRECORD
  5
38A
102
{ACAD_REACTORS
330
389
102
}
330
389
100
AcDbXrecord
280
     1
102
RTVSPropertyOp0
 70
     1
102
RTVSPropertyOp1
 70
     1
102
RTVSPropertyOp2
 70
     1
102
RTVSPropertyOp3
 70
     1
102
RTVSPropertyOp4
 70
     1
102
RTVSPropertyOp5
 70
     1
102
RTVSPropertyOp6
 70
     1
102
RTVSPropertyOp7
 70
     1
102
RTVSPropertyOp8
 70
     1
102
RTVSPropertyOp9
 70
     1
102
RTVSPropertyOp10
 70
     1
102
RTVSPropertyOp11
 70
     1
102
RTVSPropertyOp12
 70
     1
102
RTVSPropertyOp13
 70
     1
102
RTVSPropertyOp14
 70
     1
102
RTVSPropertyOp15
 70
     1
102
RTVSPropertyOp16
 70
     1
102
RTVSPropertyOp17
 70
     1
102
RTVSPropertyOp18
 70
     1
102
RTVSPropertyOp19
 70
     1
102
RTVSPropertyOp20
 70
     1
102
RTVSPropertyOp21
 70
     1
102
RTVSPropertyOp22
 70
     1
102
RTVSPropertyOp23
 70
     1
102
RTVSPropertyOp24
 70
     1
102
RTVSPropertyOp25
 70
     1
102
RTVSPropertyOp26
 70
     1
102
RTVSPropertyOp27
 70
     1
102
RTVSPropertyOp28
 70
     1
102
RTVSPropertyOp29
 70
     1
102
RTVSPropertyOp30
 70
     1
102
RTVSPropertyOp31
 70
     1
102
RTVSPropertyOp32
 70
     1
102
RTVSPropertyOp33
 70
     1
102
RTVSPropertyOp34
 70
     1
102
RTVSPropertyOp35
 70
     1
102
RTVSPropertyOp36
 70
     1
102
RTVSPropertyOp37
 70
     1
102
RTVSPropertyOp38
 70
     1
102
RTVSPropertyOp39
 70
     1
102
RTVSPropertyOp40
 70
     1
102
RTVSPropertyOp41
 70
     1
102
RTVSPropertyOp42
 70
     1
102
RTVSPropertyOp43
 70
     1
102
RTVSPropertyOp44
 70
     1
102
RTVSPropertyOp45
 70
     1
102
RTVSPropertyOp46
 70
     1
102
RTVSPropertyOp47
 70
     1
102
RTVSPropertyOp48
 70
     1
102
RTVSPropertyOp49
 70
     1
102
RTVSPropertyOp50
 70
     1
102
RTVSPropertyOp51
 70
     0
102
RTVSPropertyOp52
 70
     0
102
RTVSPropertyOp53
 70
     1
102
RTVSPropertyOp54
 70
     1
102
RTVSPropertyOp55
 70
     1
102
RTVSPropertyOp56
 70
     1
102
RTVSPropertyOp57
 70
     1
102
RTVSPost2010Prop28
280
     0
102
RTVSPost2010PropOp28
 70
     1
102
RTVSPost2010Prop29
280
     1
102
RTVSPost2010PropOp29
 70
     1
102
RTVSPost2010Prop30
280
     1
102
RTVSPost2010PropOp30
 70
     1
102
RTVSPost2010Prop31
280
     0
102
RTVSPost2010PropOp31
 70
     1
102
RTVSPost2010Prop32
280
     0
102
RTVSPost2010PropOp32
 70
     1
102
RTVSPost2010Prop33
280
     0
102
RTVSPost2010PropOp33
 70
     1
102
RTVSPost2010Prop34
280
     0
102
RTVSPost2010PropOp34
 70
     1
102
RTVSPost2010Prop35
280
     0
102
RTVSPost2010PropOp35
 70
     1
102
RTVSPost2010Prop36
280
     0
102
RTVSPost2010PropOp36
 70
     1
102
RTVSPost2010Prop37
 90
       50
102
RTVSPost2010PropOp37
 70
     1
102
RTVSPost2010Prop38
140
0.0
102
RTVSPost2010PropOp38
 70
     1
102
RTVSPost2010Prop39
140
1.0
102
RTVSPost2010PropOp39
 70
     1
102
RTVSPost2010Prop40
 90
        0
102
RTVSPost2010PropOp40
 70
     1
102
RTVSPost2010Prop41ColorIndex
 90
       18
102
RTVSPost2010Prop41ColorRGB
 90
        0
102
RTVSPost2010PropOp41
 70
     1
102
RTVSPost2010Prop42
 90
       50
102
RTVSPost2010PropOp42
 70
     1
102
RTVSPost2010Prop43
 90
        3
102
RTVSPost2010PropOp43
 70
     1
102
RTVSPost2010Prop44ColorIndex
 90
        5
102
RTVSPost2010Prop44ColorRGB
 90
      255
102
RTVSPost2010PropOp44
 70
     1
102
RTVSPost2010Prop45
280
     0
102
RTVSPost2010PropOp45
 70
     1
102
RTVSPost2010Prop46
 90
       50
102
RTVSPost2010PropOp46
 70
     1
102
RTVSPost2010Prop47
 90
       50
102
RTVSPost2010PropOp47
 70
     1
102
RTVSPost2010Prop48
 90
       50
102
RTVSPost2010PropOp48
 70
     1
102
RTVSPost2010Prop49
280
     0
102
RTVSPost2010PropOp49
 70
     1
102
RTVSPost2010Prop50
 90
       50
102
RTVSPost2010PropOp50
 70
     1
102
RTVSPost2010Prop51ColorIndex
 90
      256
102
RTVSPost2010Prop51ColorRGB
 90
-16777216
102
RTVSPost2010PropOp51
 70
     0
102
RTVSPost2010Prop52
140
1.0
102
RTVSPost2010PropOp52
 70
     0
102
RTVSPost2010Prop53
 90
        2
102
RTVSPost2010PropOp53
 70
     1
102
RTVSPost2010Prop54
  1
strokes_ogs.tif
102
RTVSPost2010PropOp54
 70
     1
102
RTVSPost2010Prop55
280
     0
102
RTVSPost2010PropOp55
 70
     1
102
RTVSPost2010Prop56
140
1.0
102
RTVSPost2010PropOp56
 70
     1
102
RTVSPost2010Prop57
140
1.0
102
RTVSPost2010PropOp57
 70
     1
  0
XRECORD
  5
37E
102
{ACAD_REACTORS
330
37D
102
}
330
37D
100
AcDbXrecord
280
     1
102
RTVSPropertyOp0
 70
     1
102
RTVSPropertyOp1
 70
     1
102
RTVSPropertyOp2
 70
     1
102
RTVSPropertyOp3
 70
     1
102
RTVSPropertyOp4
 70
     1
102
RTVSPropertyOp5
 70
     1
102
RTVSPropertyOp6
 70
     1
102
RTVSPropertyOp7
 70
     1
102
RTVSPropertyOp8
 70
     1
102
RTVSPropertyOp9
 70
     1
102
RTVSPropertyOp10
 70
     1
102
RTVSPropertyOp11
 70
     1
102
RTVSPropertyOp12
 70
     1
102
RTVSPropertyOp13
 70
     1
102
RTVSPropertyOp14
 70
     1
102
RTVSPropertyOp15
 70
     1
102
RTVSPropertyOp16
 70
     1
102
RTVSPropertyOp17
 70
     1
102
RTVSPropertyOp18
 70
     1
102
RTVSPropertyOp19
 70
     1
102
RTVSPropertyOp20
 70
     1
102
RTVSPropertyOp21
 70
     1
102
RTVSPropertyOp22
 70
     1
102
RTVSPropertyOp23
 70
     1
102
RTVSPropertyOp24
 70
     1
102
RTVSPropertyOp25
 70
     1
102
RTVSPropertyOp26
 70
     1
102
RTVSPropertyOp27
 70
     1
102
RTVSPropertyOp28
 70
     1
102
RTVSPropertyOp29
 70
     1
102
RTVSPropertyOp30
 70
     1
102
RTVSPropertyOp31
 70
     1
102
RTVSPropertyOp32
 70
     1
102
RTVSPropertyOp33
 70
     1
102
RTVSPropertyOp34
 70
     1
102
RTVSPropertyOp35
 70
     1
102
RTVSPropertyOp36
 70
     1
102
RTVSPropertyOp37
 70
     1
102
RTVSPropertyOp38
 70
     1
102
RTVSPropertyOp39
 70
     1
102
RTVSPropertyOp40
 70
     1
102
RTVSPropertyOp41
 70
     1
102
RTVSPropertyOp42
 70
     1
102
RTVSPropertyOp43
 70
     1
102
RTVSPropertyOp44
 70
     1
102
RTVSPropertyOp45
 70
     1
102
RTVSPropertyOp46
 70
     1
102
RTVSPropertyOp47
 70
     1
102
RTVSPropertyOp48
 70
     1
102
RTVSPropertyOp49
 70
     1
102
RTVSPropertyOp50
 70
     1
102
RTVSPropertyOp51
 70
     0
102
RTVSPropertyOp52
 70
     0
102
RTVSPropertyOp53
 70
     1
102
RTVSPropertyOp54
 70
     1
102
RTVSPropertyOp55
 70
     1
102
RTVSPropertyOp56
 70
     1
102
RTVSPropertyOp57
 70
     1
102
RTVSPost2010Prop28
280
     0
102
RTVSPost2010PropOp28
 70
     1
102
RTVSPost2010Prop29
280
     1
102
RTVSPost2010PropOp29
 70
     1
102
RTVSPost2010Prop30
280
     1
102
RTVSPost2010PropOp30
 70
     1
102
RTVSPost2010Prop31
280
     0
102
RTVSPost2010PropOp31
 70
     1
102
RTVSPost2010Prop32
280
     0
102
RTVSPost2010PropOp32
 70
     1
102
RTVSPost2010Prop33
280
     0
102
RTVSPost2010PropOp33
 70
     1
102
RTVSPost2010Prop34
280
     0
102
RTVSPost2010PropOp34
 70
     1
102
RTVSPost2010Prop35
280
     0
102
RTVSPost2010PropOp35
 70
     1
102
RTVSPost2010Prop36
280
     0
102
RTVSPost2010PropOp36
 70
     1
102
RTVSPost2010Prop37
 90
       50
102
RTVSPost2010PropOp37
 70
     1
102
RTVSPost2010Prop38
140
0.0
102
RTVSPost2010PropOp38
 70
     1
102
RTVSPost2010Prop39
140
1.0
102
RTVSPost2010PropOp39
 70
     1
102
RTVSPost2010Prop40
 90
        0
102
RTVSPost2010PropOp40
 70
     1
102
RTVSPost2010Prop41ColorIndex
 90
       18
102
RTVSPost2010Prop41ColorRGB
 90
        0
102
RTVSPost2010PropOp41
 70
     1
102
RTVSPost2010Prop42
 90
       50
102
RTVSPost2010PropOp42
 70
     1
102
RTVSPost2010Prop43
 90
        3
102
RTVSPost2010PropOp43
 70
     1
102
RTVSPost2010Prop44ColorIndex
 90
        5
102
RTVSPost2010Prop44ColorRGB
 90
      255
102
RTVSPost2010PropOp44
 70
     1
102
RTVSPost2010Prop45
280
     0
102
RTVSPost2010PropOp45
 70
     1
102
RTVSPost2010Prop46
 90
       50
102
RTVSPost2010PropOp46
 70
     1
102
RTVSPost2010Prop47
 90
       50
102
RTVSPost2010PropOp47
 70
     1
102
RTVSPost2010Prop48
 90
       50
102
RTVSPost2010PropOp48
 70
     1
102
RTVSPost2010Prop49
280
     0
102
RTVSPost2010PropOp49
 70
     1
102
RTVSPost2010Prop50
 90
       50
102
RTVSPost2010PropOp50
 70
     1
102
RTVSPost2010Prop51ColorIndex
 90
      256
102
RTVSPost2010Prop51ColorRGB
 90
-16777216
102
RTVSPost2010PropOp51
 70
     0
102
RTVSPost2010Prop52
140
1.0
102
RTVSPost2010PropOp52
 70
     0
102
RTVSPost2010Prop53
 90
        2
102
RTVSPost2010PropOp53
 70
     1
102
RTVSPost2010Prop54
  1
strokes_ogs.tif
102
RTVSPost2010PropOp54
 70
     1
102
RTVSPost2010Prop55
280
     0
102
RTVSPost2010PropOp55
 70
     1
102
RTVSPost2010Prop56
140
1.0
102
RTVSPost2010PropOp56
 70
     1
102
RTVSPost2010Prop57
140
1.0
102
RTVSPost2010PropOp57
 70
     1
  0
XRECORD
  5
380
102
{ACAD_REACTORS
330
37F
102
}
330
37F
100
AcDbXrecord
280
     1
102
RTVSPropertyOp0
 70
     1
102
RTVSPropertyOp1
 70
     1
102
RTVSPropertyOp2
 70
     1
102
RTVSPropertyOp3
 70
     1
102
RTVSPropertyOp4
 70
     1
102
RTVSPropertyOp5
 70
     1
102
RTVSPropertyOp6
 70
     1
102
RTVSPropertyOp7
 70
     1
102
RTVSPropertyOp8
 70
     1
102
RTVSPropertyOp9
 70
     1
102
RTVSPropertyOp10
 70
     1
102
RTVSPropertyOp11
 70
     1
102
RTVSPropertyOp12
 70
     1
102
RTVSPropertyOp13
 70
     1
102
RTVSPropertyOp14
 70
     1
102
RTVSPropertyOp15
 70
     1
102
RTVSPropertyOp16
 70
     1
102
RTVSPropertyOp17
 70
     1
102
RTVSPropertyOp18
 70
     1
102
RTVSPropertyOp19
 70
     1
102
RTVSPropertyOp20
 70
     1
102
RTVSPropertyOp21
 70
     1
102
RTVSPropertyOp22
 70
     1
102
RTVSPropertyOp23
 70
     1
102
RTVSPropertyOp24
 70
     1
102
RTVSPropertyOp25
 70
     1
102
RTVSPropertyOp26
 70
     1
102
RTVSPropertyOp27
 70
     1
102
RTVSPropertyOp28
 70
     1
102
RTVSPropertyOp29
 70
     1
102
RTVSPropertyOp30
 70
     1
102
RTVSPropertyOp31
 70
     1
102
RTVSPropertyOp32
 70
     1
102
RTVSPropertyOp33
 70
     1
102
RTVSPropertyOp34
 70
     1
102
RTVSPropertyOp35
 70
     1
102
RTVSPropertyOp36
 70
     1
102
RTVSPropertyOp37
 70
     1
102
RTVSPropertyOp38
 70
     1
102
RTVSPropertyOp39
 70
     1
102
RTVSPropertyOp40
 70
     1
102
RTVSPropertyOp41
 70
     1
102
RTVSPropertyOp42
 70
     1
102
RTVSPropertyOp43
 70
     1
102
RTVSPropertyOp44
 70
     1
102
RTVSPropertyOp45
 70
     1
102
RTVSPropertyOp46
 70
     1
102
RTVSPropertyOp47
 70
     1
102
RTVSPropertyOp48
 70
     1
102
RTVSPropertyOp49
 70
     1
102
RTVSPropertyOp50
 70
     1
102
RTVSPropertyOp51
 70
     0
102
RTVSPropertyOp52
 70
     0
102
RTVSPropertyOp53
 70
     1
102
RTVSPropertyOp54
 70
     1
102
RTVSPropertyOp55
 70
     1
102
RTVSPropertyOp56
 70
     1
102
RTVSPropertyOp57
 70
     1
102
RTVSPost2010Prop28
280
     0
102
RTVSPost2010PropOp28
 70
     1
102
RTVSPost2010Prop29
280
     1
102
RTVSPost2010PropOp29
 70
     1
102
RTVSPost2010Prop30
280
     1
102
RTVSPost2010PropOp30
 70
     1
102
RTVSPost2010Prop31
280
     0
102
RTVSPost2010PropOp31
 70
     1
102
RTVSPost2010Prop32
280
     0
102
RTVSPost2010PropOp32
 70
     1
102
RTVSPost2010Prop33
280
     0
102
RTVSPost2010PropOp33
 70
     1
102
RTVSPost2010Prop34
280
     0
102
RTVSPost2010PropOp34
 70
     1
102
RTVSPost2010Prop35
280
     0
102
RTVSPost2010PropOp35
 70
     1
102
RTVSPost2010Prop36
280
     0
102
RTVSPost2010PropOp36
 70
     1
102
RTVSPost2010Prop37
 90
       50
102
RTVSPost2010PropOp37
 70
     1
102
RTVSPost2010Prop38
140
0.0
102
RTVSPost2010PropOp38
 70
     1
102
RTVSPost2010Prop39
140
1.0
102
RTVSPost2010PropOp39
 70
     1
102
RTVSPost2010Prop40
 90
        0
102
RTVSPost2010PropOp40
 70
     1
102
RTVSPost2010Prop41ColorIndex
 90
       18
102
RTVSPost2010Prop41ColorRGB
 90
        0
102
RTVSPost2010PropOp41
 70
     1
102
RTVSPost2010Prop42
 90
       50
102
RTVSPost2010PropOp42
 70
     1
102
RTVSPost2010Prop43
 90
        3
102
RTVSPost2010PropOp43
 70
     1
102
RTVSPost2010Prop44ColorIndex
 90
        5
102
RTVSPost2010Prop44ColorRGB
 90
      255
102
RTVSPost2010PropOp44
 70
     1
102
RTVSPost2010Prop45
280
     0
102
RTVSPost2010PropOp45
 70
     1
102
RTVSPost2010Prop46
 90
       50
102
RTVSPost2010PropOp46
 70
     1
102
RTVSPost2010Prop47
 90
       50
102
RTVSPost2010PropOp47
 70
     1
102
RTVSPost2010Prop48
 90
       50
102
RTVSPost2010PropOp48
 70
     1
102
RTVSPost2010Prop49
280
     0
102
RTVSPost2010PropOp49
 70
     1
102
RTVSPost2010Prop50
 90
       50
102
RTVSPost2010PropOp50
 70
     1
102
RTVSPost2010Prop51ColorIndex
 90
      256
102
RTVSPost2010Prop51ColorRGB
 90
-16777216
102
RTVSPost2010PropOp51
 70
     0
102
RTVSPost2010Prop52
140
1.0
102
RTVSPost2010PropOp52
 70
     0
102
RTVSPost2010Prop53
 90
        2
102
RTVSPost2010PropOp53
 70
     1
102
RTVSPost2010Prop54
  1
strokes_ogs.tif
102
RTVSPost2010PropOp54
 70
     1
102
RTVSPost2010Prop55
280
     0
102
RTVSPost2010PropOp55
 70
     1
102
RTVSPost2010Prop56
140
1.0
102
RTVSPost2010PropOp56
 70
     1
102
RTVSPost2010Prop57
140
1.0
102
RTVSPost2010PropOp57
 70
     1
  0
XRECORD
  5
390
102
{ACAD_REACTORS
330
38F
102
}
330
38F
100
AcDbXrecord
280
     1
102
RTVSPropertyOp0
 70
     0
102
RTVSPropertyOp1
 70
     0
102
RTVSPropertyOp2
 70
     0
102
RTVSPropertyOp3
 70
     0
102
RTVSPropertyOp4
 70
     0
102
RTVSPropertyOp5
 70
     0
102
RTVSPropertyOp6
 70
     0
102
RTVSPropertyOp7
 70
     0
102
RTVSPropertyOp8
 70
     0
102
RTVSPropertyOp9
 70
     0
102
RTVSPropertyOp10
 70
     0
102
RTVSPropertyOp11
 70
     0
102
RTVSPropertyOp12
 70
     0
102
RTVSPropertyOp13
 70
     0
102
RTVSPropertyOp14
 70
     2
102
RTVSPropertyOp15
 70
     0
102
RTVSPropertyOp16
 70
     0
102
RTVSPropertyOp17
 70
     0
102
RTVSPropertyOp18
 70
     0
102
RTVSPropertyOp19
 70
     0
102
RTVSPropertyOp20
 70
     0
102
RTVSPropertyOp21
 70
     0
102
RTVSPropertyOp22
 70
     0
102
RTVSPropertyOp23
 70
     0
102
RTVSPropertyOp24
 70
     0
102
RTVSPropertyOp25
 70
     0
102
RTVSPropertyOp26
 70
     0
102
RTVSPropertyOp27
 70
     0
102
RTVSPropertyOp28
 70
     0
102
RTVSPropertyOp29
 70
     0
102
RTVSPropertyOp30
 70
     0
102
RTVSPropertyOp31
 70
     0
102
RTVSPropertyOp32
 70
     0
102
RTVSPropertyOp33
 70
     0
102
RTVSPropertyOp34
 70
     0
102
RTVSPropertyOp35
 70
     0
102
RTVSPropertyOp36
 70
     0
102
RTVSPropertyOp37
 70
     0
102
RTVSPropertyOp38
 70
     0
102
RTVSPropertyOp39
 70
     0
102
RTVSPropertyOp40
 70
     0
102
RTVSPropertyOp41
 70
     0
102
RTVSPropertyOp42
 70
     0
102
RTVSPropertyOp43
 70
     0
102
RTVSPropertyOp44
 70
     0
102
RTVSPropertyOp45
 70
     0
102
RTVSPropertyOp46
 70
     0
102
RTVSPropertyOp47
 70
     0
102
RTVSPropertyOp48
 70
     0
102
RTVSPropertyOp49
 70
     0
102
RTVSPropertyOp50
 70
     0
102
RTVSPropertyOp51
 70
     0
102
RTVSPropertyOp52
 70
     0
102
RTVSPropertyOp53
 70
     0
102
RTVSPropertyOp54
 70
     0
102
RTVSPropertyOp55
 70
     0
102
RTVSPropertyOp56
 70
     0
102
RTVSPropertyOp57
 70
     0
102
RTVSPost2010Prop28
280
     0
102
RTVSPost2010PropOp28
 70
     0
102
RTVSPost2010Prop29
280
     1
102
RTVSPost2010PropOp29
 70
     0
102
RTVSPost2010Prop30
280
     1
102
RTVSPost2010PropOp30
 70
     0
102
RTVSPost2010Prop31
280
     0
102
RTVSPost2010PropOp31
 70
     0
102
RTVSPost2010Prop32
280
     0
102
RTVSPost2010PropOp32
 70
     0
102
RTVSPost2010Prop33
280
     0
102
RTVSPost2010PropOp33
 70
     0
102
RTVSPost2010Prop34
280
     0
102
RTVSPost2010PropOp34
 70
     0
102
RTVSPost2010Prop35
280
     0
102
RTVSPost2010PropOp35
 70
     0
102
RTVSPost2010Prop36
280
     0
102
RTVSPost2010PropOp36
 70
     0
102
RTVSPost2010Prop37
 90
       50
102
RTVSPost2010PropOp37
 70
     0
102
RTVSPost2010Prop38
140
0.0
102
RTVSPost2010PropOp38
 70
     0
102
RTVSPost2010Prop39
140
1.0
102
RTVSPost2010PropOp39
 70
     0
102
RTVSPost2010Prop40
 90
        0
102
RTVSPost2010PropOp40
 70
     0
102
RTVSPost2010Prop41ColorIndex
 90
       18
102
RTVSPost2010Prop41ColorRGB
 90
        0
102
RTVSPost2010PropOp41
 70
     0
102
RTVSPost2010Prop42
 90
       50
102
RTVSPost2010PropOp42
 70
     0
102
RTVSPost2010Prop43
 90
        3
102
RTVSPost2010PropOp43
 70
     0
102
RTVSPost2010Prop44ColorIndex
 90
        5
102
RTVSPost2010Prop44ColorRGB
 90
      255
102
RTVSPost2010PropOp44
 70
     0
102
RTVSPost2010Prop45
280
     0
102
RTVSPost2010PropOp45
 70
     0
102
RTVSPost2010Prop46
 90
       50
102
RTVSPost2010PropOp46
 70
     0
102
RTVSPost2010Prop47
 90
       50
102
RTVSPost2010PropOp47
 70
     0
102
RTVSPost2010Prop48
 90
       50
102
RTVSPost2010PropOp48
 70
     0
102
RTVSPost2010Prop49
280
     0
102
RTVSPost2010PropOp49
 70
     0
102
RTVSPost2010Prop50
 90
       50
102
RTVSPost2010PropOp50
 70
     0
102
RTVSPost2010Prop51ColorIndex
 90
      256
102
RTVSPost2010Prop51ColorRGB
 90
-16777216
102
RTVSPost2010PropOp51
 70
     0
102
RTVSPost2010Prop52
140
1.0
102
RTVSPost2010PropOp52
 70
     0
102
RTVSPost2010Prop53
 90
        2
102
RTVSPost2010PropOp53
 70
     0
102
RTVSPost2010Prop54
  1
strokes_ogs.tif
102
RTVSPost2010PropOp54
 70
     0
102
RTVSPost2010Prop55
280
     0
102
RTVSPost2010PropOp55
 70
     0
102
RTVSPost2010Prop56
140
1.0
102
RTVSPost2010PropOp56
 70
     0
102
RTVSPost2010Prop57
140
1.0
102
RTVSPost2010PropOp57
 70
     0
  0
XRECORD
  5
388
102
{ACAD_REACTORS
330
387
102
}
330
387
100
AcDbXrecord
280
     1
102
RTVSPropertyOp0
 70
     1
102
RTVSPropertyOp1
 70
     1
102
RTVSPropertyOp2
 70
     1
102
RTVSPropertyOp3
 70
     1
102
RTVSPropertyOp4
 70
     1
102
RTVSPropertyOp5
 70
     1
102
RTVSPropertyOp6
 70
     1
102
RTVSPropertyOp7
 70
     1
102
RTVSPropertyOp8
 70
     1
102
RTVSPropertyOp9
 70
     1
102
RTVSPropertyOp10
 70
     1
102
RTVSPropertyOp11
 70
     1
102
RTVSPropertyOp12
 70
     1
102
RTVSPropertyOp13
 70
     1
102
RTVSPropertyOp14
 70
     1
102
RTVSPropertyOp15
 70
     1
102
RTVSPropertyOp16
 70
     1
102
RTVSPropertyOp17
 70
     1
102
RTVSPropertyOp18
 70
     1
102
RTVSPropertyOp19
 70
     1
102
RTVSPropertyOp20
 70
     1
102
RTVSPropertyOp21
 70
     1
102
RTVSPropertyOp22
 70
     1
102
RTVSPropertyOp23
 70
     1
102
RTVSPropertyOp24
 70
     1
102
RTVSPropertyOp25
 70
     1
102
RTVSPropertyOp26
 70
     1
102
RTVSPropertyOp27
 70
     1
102
RTVSPropertyOp28
 70
     1
102
RTVSPropertyOp29
 70
     1
102
RTVSPropertyOp30
 70
     1
102
RTVSPropertyOp31
 70
     1
102
RTVSPropertyOp32
 70
     1
102
RTVSPropertyOp33
 70
     1
102
RTVSPropertyOp34
 70
     1
102
RTVSPropertyOp35
 70
     1
102
RTVSPropertyOp36
 70
     1
102
RTVSPropertyOp37
 70
     1
102
RTVSPropertyOp38
 70
     1
102
RTVSPropertyOp39
 70
     1
102
RTVSPropertyOp40
 70
     1
102
RTVSPropertyOp41
 70
     1
102
RTVSPropertyOp42
 70
     1
102
RTVSPropertyOp43
 70
     1
102
RTVSPropertyOp44
 70
     1
102
RTVSPropertyOp45
 70
     1
102
RTVSPropertyOp46
 70
     1
102
RTVSPropertyOp47
 70
     1
102
RTVSPropertyOp48
 70
     1
102
RTVSPropertyOp49
 70
     1
102
RTVSPropertyOp50
 70
     1
102
RTVSPropertyOp51
 70
     0
102
RTVSPropertyOp52
 70
     0
102
RTVSPropertyOp53
 70
     1
102
RTVSPropertyOp54
 70
     1
102
RTVSPropertyOp55
 70
     1
102
RTVSPropertyOp56
 70
     1
102
RTVSPropertyOp57
 70
     1
102
RTVSPost2010Prop28
280
     0
102
RTVSPost2010PropOp28
 70
     1
102
RTVSPost2010Prop29
280
     1
102
RTVSPost2010PropOp29
 70
     1
102
RTVSPost2010Prop30
280
     1
102
RTVSPost2010PropOp30
 70
     1
102
RTVSPost2010Prop31
280
     0
102
RTVSPost2010PropOp31
 70
     1
102
RTVSPost2010Prop32
280
     0
102
RTVSPost2010PropOp32
 70
     1
102
RTVSPost2010Prop33
280
     0
102
RTVSPost2010PropOp33
 70
     1
102
RTVSPost2010Prop34
280
     0
102
RTVSPost2010PropOp34
 70
     1
102
RTVSPost2010Prop35
280
     0
102
RTVSPost2010PropOp35
 70
     1
102
RTVSPost2010Prop36
280
     0
102
RTVSPost2010PropOp36
 70
     1
102
RTVSPost2010Prop37
 90
       50
102
RTVSPost2010PropOp37
 70
     1
102
RTVSPost2010Prop38
140
0.0
102
RTVSPost2010PropOp38
 70
     1
102
RTVSPost2010Prop39
140
1.0
102
RTVSPost2010PropOp39
 70
     1
102
RTVSPost2010Prop40
 90
        0
102
RTVSPost2010PropOp40
 70
     1
102
RTVSPost2010Prop41ColorIndex
 90
       18
102
RTVSPost2010Prop41ColorRGB
 90
        0
102
RTVSPost2010PropOp41
 70
     1
102
RTVSPost2010Prop42
 90
       50
102
RTVSPost2010PropOp42
 70
     1
102
RTVSPost2010Prop43
 90
        3
102
RTVSPost2010PropOp43
 70
     1
102
RTVSPost2010Prop44ColorIndex
 90
        5
102
RTVSPost2010Prop44ColorRGB
 90
      255
102
RTVSPost2010PropOp44
 70
     1
102
RTVSPost2010Prop45
280
     0
102
RTVSPost2010PropOp45
 70
     1
102
RTVSPost2010Prop46
 90
       50
102
RTVSPost2010PropOp46
 70
     1
102
RTVSPost2010Prop47
 90
       50
102
RTVSPost2010PropOp47
 70
     1
102
RTVSPost2010Prop48
 90
       50
102
RTVSPost2010PropOp48
 70
     1
102
RTVSPost2010Prop49
280
     0
102
RTVSPost2010PropOp49
 70
     1
102
RTVSPost2010Prop50
 90
       50
102
RTVSPost2010PropOp50
 70
     1
102
RTVSPost2010Prop51ColorIndex
 90
      256
102
RTVSPost2010Prop51ColorRGB
 90
-16777216
102
RTVSPost2010PropOp51
 70
     0
102
RTVSPost2010Prop52
140
1.0
102
RTVSPost2010PropOp52
 70
     0
102
RTVSPost2010Prop53
 90
        2
102
RTVSPost2010PropOp53
 70
     1
102
RTVSPost2010Prop54
  1
strokes_ogs.tif
102
RTVSPost2010PropOp54
 70
     1
102
RTVSPost2010Prop55
280
     0
102
RTVSPost2010PropOp55
 70
     1
102
RTVSPost2010Prop56
140
1.0
102
RTVSPost2010PropOp56
 70
     1
102
RTVSPost2010Prop57
140
1.0
102
RTVSPost2010PropOp57
 70
     1
  0
XRECORD
  5
36C
102
{ACAD_REACTORS
330
36B
102
}
330
36B
100
AcDbXrecord
280
     1
102
RTVSPropertyOp0
 70
     1
102
RTVSPropertyOp1
 70
     1
102
RTVSPropertyOp2
 70
     1
102
RTVSPropertyOp3
 70
     1
102
RTVSPropertyOp4
 70
     1
102
RTVSPropertyOp5
 70
     1
102
RTVSPropertyOp6
 70
     1
102
RTVSPropertyOp7
 70
     1
102
RTVSPropertyOp8
 70
     1
102
RTVSPropertyOp9
 70
     1
102
RTVSPropertyOp10
 70
     1
102
RTVSPropertyOp11
 70
     1
102
RTVSPropertyOp12
 70
     1
102
RTVSPropertyOp13
 70
     1
102
RTVSPropertyOp14
 70
     1
102
RTVSPropertyOp15
 70
     1
102
RTVSPropertyOp16
 70
     1
102
RTVSPropertyOp17
 70
     1
102
RTVSPropertyOp18
 70
     1
102
RTVSPropertyOp19
 70
     1
102
RTVSPropertyOp20
 70
     1
102
RTVSPropertyOp21
 70
     1
102
RTVSPropertyOp22
 70
     1
102
RTVSPropertyOp23
 70
     1
102
RTVSPropertyOp24
 70
     1
102
RTVSPropertyOp25
 70
     1
102
RTVSPropertyOp26
 70
     1
102
RTVSPropertyOp27
 70
     1
102
RTVSPropertyOp28
 70
     1
102
RTVSPropertyOp29
 70
     1
102
RTVSPropertyOp30
 70
     1
102
RTVSPropertyOp31
 70
     1
102
RTVSPropertyOp32
 70
     1
102
RTVSPropertyOp33
 70
     1
102
RTVSPropertyOp34
 70
     1
102
RTVSPropertyOp35
 70
     1
102
RTVSPropertyOp36
 70
     1
102
RTVSPropertyOp37
 70
     1
102
RTVSPropertyOp38
 70
     1
102
RTVSPropertyOp39
 70
     1
102
RTVSPropertyOp40
 70
     1
102
RTVSPropertyOp41
 70
     1
102
RTVSPropertyOp42
 70
     1
102
RTVSPropertyOp43
 70
     1
102
RTVSPropertyOp44
 70
     1
102
RTVSPropertyOp45
 70
     1
102
RTVSPropertyOp46
 70
     1
102
RTVSPropertyOp47
 70
     1
102
RTVSPropertyOp48
 70
     1
102
RTVSPropertyOp49
 70
     1
102
RTVSPropertyOp50
 70
     1
102
RTVSPropertyOp51
 70
     0
102
RTVSPropertyOp52
 70
     0
102
RTVSPropertyOp53
 70
     1
102
RTVSPropertyOp54
 70
     1
102
RTVSPropertyOp55
 70
     1
102
RTVSPropertyOp56
 70
     1
102
RTVSPropertyOp57
 70
     1
102
RTVSPost2010Prop28
280
     0
102
RTVSPost2010PropOp28
 70
     1
102
RTVSPost2010Prop29
280
     1
102
RTVSPost2010PropOp29
 70
     1
102
RTVSPost2010Prop30
280
     1
102
RTVSPost2010PropOp30
 70
     1
102
RTVSPost2010Prop31
280
     0
102
RTVSPost2010PropOp31
 70
     1
102
RTVSPost2010Prop32
280
     0
102
RTVSPost2010PropOp32
 70
     1
102
RTVSPost2010Prop33
280
     0
102
RTVSPost2010PropOp33
 70
     1
102
RTVSPost2010Prop34
280
     0
102
RTVSPost2010PropOp34
 70
     1
102
RTVSPost2010Prop35
280
     0
102
RTVSPost2010PropOp35
 70
     1
102
RTVSPost2010Prop36
280
     0
102
RTVSPost2010PropOp36
 70
     1
102
RTVSPost2010Prop37
 90
       50
102
RTVSPost2010PropOp37
 70
     1
102
RTVSPost2010Prop38
140
0.0
102
RTVSPost2010PropOp38
 70
     1
102
RTVSPost2010Prop39
140
1.0
102
RTVSPost2010PropOp39
 70
     1
102
RTVSPost2010Prop40
 90
        0
102
RTVSPost2010PropOp40
 70
     1
102
RTVSPost2010Prop41ColorIndex
 90
       18
102
RTVSPost2010Prop41ColorRGB
 90
        0
102
RTVSPost2010PropOp41
 70
     1
102
RTVSPost2010Prop42
 90
       50
102
RTVSPost2010PropOp42
 70
     1
102
RTVSPost2010Prop43
 90
        3
102
RTVSPost2010PropOp43
 70
     1
102
RTVSPost2010Prop44ColorIndex
 90
        5
102
RTVSPost2010Prop44ColorRGB
 90
      255
102
RTVSPost2010PropOp44
 70
     1
102
RTVSPost2010Prop45
280
     0
102
RTVSPost2010PropOp45
 70
     1
102
RTVSPost2010Prop46
 90
       50
102
RTVSPost2010PropOp46
 70
     1
102
RTVSPost2010Prop47
 90
       50
102
RTVSPost2010PropOp47
 70
     1
102
RTVSPost2010Prop48
 90
       50
102
RTVSPost2010PropOp48
 70
     1
102
RTVSPost2010Prop49
280
     0
102
RTVSPost2010PropOp49
 70
     1
102
RTVSPost2010Prop50
 90
       50
102
RTVSPost2010PropOp50
 70
     1
102
RTVSPost2010Prop51ColorIndex
 90
      256
102
RTVSPost2010Prop51ColorRGB
 90
-16777216
102
RTVSPost2010PropOp51
 70
     0
102
RTVSPost2010Prop52
140
1.0
102
RTVSPost2010PropOp52
 70
     0
102
RTVSPost2010Prop53
 90
        2
102
RTVSPost2010PropOp53
 70
     1
102
RTVSPost2010Prop54
  1
strokes_ogs.tif
102
RTVSPost2010PropOp54
 70
     1
102
RTVSPost2010Prop55
280
     0
102
RTVSPost2010PropOp55
 70
     1
102
RTVSPost2010Prop56
140
1.0
102
RTVSPost2010PropOp56
 70
     1
102
RTVSPost2010Prop57
140
1.0
102
RTVSPost2010PropOp57
 70
     1
  0
XRECORD
  5
36E
102
{ACAD_REACTORS
330
36D
102
}
330
36D
100
AcDbXrecord
280
     1
102
RTVSPropertyOp0
 70
     1
102
RTVSPropertyOp1
 70
     1
102
RTVSPropertyOp2
 70
     1
102
RTVSPropertyOp3
 70
     1
102
RTVSPropertyOp4
 70
     1
102
RTVSPropertyOp5
 70
     1
102
RTVSPropertyOp6
 70
     1
102
RTVSPropertyOp7
 70
     1
102
RTVSPropertyOp8
 70
     1
102
RTVSPropertyOp9
 70
     1
102
RTVSPropertyOp10
 70
     1
102
RTVSPropertyOp11
 70
     1
102
RTVSPropertyOp12
 70
     1
102
RTVSPropertyOp13
 70
     1
102
RTVSPropertyOp14
 70
     1
102
RTVSPropertyOp15
 70
     1
102
RTVSPropertyOp16
 70
     1
102
RTVSPropertyOp17
 70
     1
102
RTVSPropertyOp18
 70
     1
102
RTVSPropertyOp19
 70
     1
102
RTVSPropertyOp20
 70
     1
102
RTVSPropertyOp21
 70
     1
102
RTVSPropertyOp22
 70
     1
102
RTVSPropertyOp23
 70
     1
102
RTVSPropertyOp24
 70
     1
102
RTVSPropertyOp25
 70
     1
102
RTVSPropertyOp26
 70
     1
102
RTVSPropertyOp27
 70
     1
102
RTVSPropertyOp28
 70
     1
102
RTVSPropertyOp29
 70
     1
102
RTVSPropertyOp30
 70
     1
102
RTVSPropertyOp31
 70
     1
102
RTVSPropertyOp32
 70
     1
102
RTVSPropertyOp33
 70
     1
102
RTVSPropertyOp34
 70
     1
102
RTVSPropertyOp35
 70
     1
102
RTVSPropertyOp36
 70
     1
102
RTVSPropertyOp37
 70
     1
102
RTVSPropertyOp38
 70
     1
102
RTVSPropertyOp39
 70
     1
102
RTVSPropertyOp40
 70
     1
102
RTVSPropertyOp41
 70
     1
102
RTVSPropertyOp42
 70
     1
102
RTVSPropertyOp43
 70
     1
102
RTVSPropertyOp44
 70
     1
102
RTVSPropertyOp45
 70
     1
102
RTVSPropertyOp46
 70
     1
102
RTVSPropertyOp47
 70
     1
102
RTVSPropertyOp48
 70
     1
102
RTVSPropertyOp49
 70
     1
102
RTVSPropertyOp50
 70
     1
102
RTVSPropertyOp51
 70
     0
102
RTVSPropertyOp52
 70
     0
102
RTVSPropertyOp53
 70
     1
102
RTVSPropertyOp54
 70
     1
102
RTVSPropertyOp55
 70
     1
102
RTVSPropertyOp56
 70
     1
102
RTVSPropertyOp57
 70
     1
102
RTVSPost2010Prop28
280
     0
102
RTVSPost2010PropOp28
 70
     1
102
RTVSPost2010Prop29
280
     1
102
RTVSPost2010PropOp29
 70
     1
102
RTVSPost2010Prop30
280
     1
102
RTVSPost2010PropOp30
 70
     1
102
RTVSPost2010Prop31
280
     0
102
RTVSPost2010PropOp31
 70
     1
102
RTVSPost2010Prop32
280
     0
102
RTVSPost2010PropOp32
 70
     1
102
RTVSPost2010Prop33
280
     0
102
RTVSPost2010PropOp33
 70
     1
102
RTVSPost2010Prop34
280
     0
102
RTVSPost2010PropOp34
 70
     1
102
RTVSPost2010Prop35
280
     0
102
RTVSPost2010PropOp35
 70
     1
102
RTVSPost2010Prop36
280
     0
102
RTVSPost2010PropOp36
 70
     1
102
RTVSPost2010Prop37
 90
       50
102
RTVSPost2010PropOp37
 70
     1
102
RTVSPost2010Prop38
140
0.0
102
RTVSPost2010PropOp38
 70
     1
102
RTVSPost2010Prop39
140
1.0
102
RTVSPost2010PropOp39
 70
     1
102
RTVSPost2010Prop40
 90
        0
102
RTVSPost2010PropOp40
 70
     1
102
RTVSPost2010Prop41ColorIndex
 90
       18
102
RTVSPost2010Prop41ColorRGB
 90
        0
102
RTVSPost2010PropOp41
 70
     1
102
RTVSPost2010Prop42
 90
       50
102
RTVSPost2010PropOp42
 70
     1
102
RTVSPost2010Prop43
 90
        3
102
RTVSPost2010PropOp43
 70
     1
102
RTVSPost2010Prop44ColorIndex
 90
        5
102
RTVSPost2010Prop44ColorRGB
 90
      255
102
RTVSPost2010PropOp44
 70
     1
102
RTVSPost2010Prop45
280
     0
102
RTVSPost2010PropOp45
 70
     1
102
RTVSPost2010Prop46
 90
       50
102
RTVSPost2010PropOp46
 70
     1
102
RTVSPost2010Prop47
 90
       50
102
RTVSPost2010PropOp47
 70
     1
102
RTVSPost2010Prop48
 90
       50
102
RTVSPost2010PropOp48
 70
     1
102
RTVSPost2010Prop49
280
     0
102
RTVSPost2010PropOp49
 70
     1
102
RTVSPost2010Prop50
 90
       50
102
RTVSPost2010PropOp50
 70
     1
102
RTVSPost2010Prop51ColorIndex
 90
      256
102
RTVSPost2010Prop51ColorRGB
 90
-16777216
102
RTVSPost2010PropOp51
 70
     0
102
RTVSPost2010Prop52
140
1.0
102
RTVSPost2010PropOp52
 70
     0
102
RTVSPost2010Prop53
 90
        2
102
RTVSPost2010PropOp53
 70
     1
102
RTVSPost2010Prop54
  1
strokes_ogs.tif
102
RTVSPost2010PropOp54
 70
     1
102
RTVSPost2010Prop55
280
     0
102
RTVSPost2010PropOp55
 70
     1
102
RTVSPost2010Prop56
140
1.0
102
RTVSPost2010PropOp56
 70
     1
102
RTVSPost2010Prop57
140
1.0
102
RTVSPost2010PropOp57
 70
     1
  0
XRECORD
  5
370
102
{ACAD_REACTORS
330
36F
102
}
330
36F
100
AcDbXrecord
280
     1
102
RTVSPropertyOp0
 70
     1
102
RTVSPropertyOp1
 70
     1
102
RTVSPropertyOp2
 70
     1
102
RTVSPropertyOp3
 70
     1
102
RTVSPropertyOp4
 70
     1
102
RTVSPropertyOp5
 70
     1
102
RTVSPropertyOp6
 70
     1
102
RTVSPropertyOp7
 70
     1
102
RTVSPropertyOp8
 70
     1
102
RTVSPropertyOp9
 70
     1
102
RTVSPropertyOp10
 70
     1
102
RTVSPropertyOp11
 70
     1
102
RTVSPropertyOp12
 70
     1
102
RTVSPropertyOp13
 70
     1
102
RTVSPropertyOp14
 70
     1
102
RTVSPropertyOp15
 70
     1
102
RTVSPropertyOp16
 70
     1
102
RTVSPropertyOp17
 70
     1
102
RTVSPropertyOp18
 70
     1
102
RTVSPropertyOp19
 70
     1
102
RTVSPropertyOp20
 70
     1
102
RTVSPropertyOp21
 70
     1
102
RTVSPropertyOp22
 70
     1
102
RTVSPropertyOp23
 70
     1
102
RTVSPropertyOp24
 70
     1
102
RTVSPropertyOp25
 70
     1
102
RTVSPropertyOp26
 70
     1
102
RTVSPropertyOp27
 70
     1
102
RTVSPropertyOp28
 70
     1
102
RTVSPropertyOp29
 70
     1
102
RTVSPropertyOp30
 70
     1
102
RTVSPropertyOp31
 70
     1
102
RTVSPropertyOp32
 70
     1
102
RTVSPropertyOp33
 70
     1
102
RTVSPropertyOp34
 70
     1
102
RTVSPropertyOp35
 70
     1
102
RTVSPropertyOp36
 70
     1
102
RTVSPropertyOp37
 70
     1
102
RTVSPropertyOp38
 70
     1
102
RTVSPropertyOp39
 70
     1
102
RTVSPropertyOp40
 70
     1
102
RTVSPropertyOp41
 70
     1
102
RTVSPropertyOp42
 70
     1
102
RTVSPropertyOp43
 70
     1
102
RTVSPropertyOp44
 70
     1
102
RTVSPropertyOp45
 70
     1
102
RTVSPropertyOp46
 70
     1
102
RTVSPropertyOp47
 70
     1
102
RTVSPropertyOp48
 70
     1
102
RTVSPropertyOp49
 70
     1
102
RTVSPropertyOp50
 70
     1
102
RTVSPropertyOp51
 70
     0
102
RTVSPropertyOp52
 70
     0
102
RTVSPropertyOp53
 70
     1
102
RTVSPropertyOp54
 70
     1
102
RTVSPropertyOp55
 70
     1
102
RTVSPropertyOp56
 70
     1
102
RTVSPropertyOp57
 70
     1
102
RTVSPost2010Prop28
280
     0
102
RTVSPost2010PropOp28
 70
     1
102
RTVSPost2010Prop29
280
     1
102
RTVSPost2010PropOp29
 70
     1
102
RTVSPost2010Prop30
280
     1
102
RTVSPost2010PropOp30
 70
     1
102
RTVSPost2010Prop31
280
     0
102
RTVSPost2010PropOp31
 70
     1
102
RTVSPost2010Prop32
280
     0
102
RTVSPost2010PropOp32
 70
     1
102
RTVSPost2010Prop33
280
     0
102
RTVSPost2010PropOp33
 70
     1
102
RTVSPost2010Prop34
280
     0
102
RTVSPost2010PropOp34
 70
     1
102
RTVSPost2010Prop35
280
     0
102
RTVSPost2010PropOp35
 70
     1
102
RTVSPost2010Prop36
280
     0
102
RTVSPost2010PropOp36
 70
     1
102
RTVSPost2010Prop37
 90
       50
102
RTVSPost2010PropOp37
 70
     1
102
RTVSPost2010Prop38
140
0.0
102
RTVSPost2010PropOp38
 70
     1
102
RTVSPost2010Prop39
140
1.0
102
RTVSPost2010PropOp39
 70
     1
102
RTVSPost2010Prop40
 90
        0
102
RTVSPost2010PropOp40
 70
     1
102
RTVSPost2010Prop41ColorIndex
 90
       18
102
RTVSPost2010Prop41ColorRGB
 90
        0
102
RTVSPost2010PropOp41
 70
     1
102
RTVSPost2010Prop42
 90
       50
102
RTVSPost2010PropOp42
 70
     1
102
RTVSPost2010Prop43
 90
        3
102
RTVSPost2010PropOp43
 70
     1
102
RTVSPost2010Prop44ColorIndex
 90
        5
102
RTVSPost2010Prop44ColorRGB
 90
      255
102
RTVSPost2010PropOp44
 70
     1
102
RTVSPost2010Prop45
280
     0
102
RTVSPost2010PropOp45
 70
     1
102
RTVSPost2010Prop46
 90
       50
102
RTVSPost2010PropOp46
 70
     1
102
RTVSPost2010Prop47
 90
       50
102
RTVSPost2010PropOp47
 70
     1
102
RTVSPost2010Prop48
 90
       50
102
RTVSPost2010PropOp48
 70
     1
102
RTVSPost2010Prop49
280
     0
102
RTVSPost2010PropOp49
 70
     1
102
RTVSPost2010Prop50
 90
       50
102
RTVSPost2010PropOp50
 70
     1
102
RTVSPost2010Prop51ColorIndex
 90
      256
102
RTVSPost2010Prop51ColorRGB
 90
-16777216
102
RTVSPost2010PropOp51
 70
     0
102
RTVSPost2010Prop52
140
1.0
102
RTVSPost2010PropOp52
 70
     0
102
RTVSPost2010Prop53
 90
        2
102
RTVSPost2010PropOp53
 70
     1
102
RTVSPost2010Prop54
  1
strokes_ogs.tif
102
RTVSPost2010PropOp54
 70
     1
102
RTVSPost2010Prop55
280
     0
102
RTVSPost2010PropOp55
 70
     1
102
RTVSPost2010Prop56
140
1.0
102
RTVSPost2010PropOp56
 70
     1
102
RTVSPost2010Prop57
140
1.0
102
RTVSPost2010PropOp57
 70
     1
  0
XRECORD
  5
372
102
{ACAD_REACTORS
330
371
102
}
330
371
100
AcDbXrecord
280
     1
102
RTVSPropertyOp0
 70
     1
102
RTVSPropertyOp1
 70
     1
102
RTVSPropertyOp2
 70
     1
102
RTVSPropertyOp3
 70
     1
102
RTVSPropertyOp4
 70
     1
102
RTVSPropertyOp5
 70
     1
102
RTVSPropertyOp6
 70
     1
102
RTVSPropertyOp7
 70
     1
102
RTVSPropertyOp8
 70
     1
102
RTVSPropertyOp9
 70
     1
102
RTVSPropertyOp10
 70
     1
102
RTVSPropertyOp11
 70
     1
102
RTVSPropertyOp12
 70
     1
102
RTVSPropertyOp13
 70
     1
102
RTVSPropertyOp14
 70
     1
102
RTVSPropertyOp15
 70
     1
102
RTVSPropertyOp16
 70
     1
102
RTVSPropertyOp17
 70
     1
102
RTVSPropertyOp18
 70
     1
102
RTVSPropertyOp19
 70
     1
102
RTVSPropertyOp20
 70
     1
102
RTVSPropertyOp21
 70
     1
102
RTVSPropertyOp22
 70
     1
102
RTVSPropertyOp23
 70
     1
102
RTVSPropertyOp24
 70
     1
102
RTVSPropertyOp25
 70
     1
102
RTVSPropertyOp26
 70
     1
102
RTVSPropertyOp27
 70
     1
102
RTVSPropertyOp28
 70
     1
102
RTVSPropertyOp29
 70
     1
102
RTVSPropertyOp30
 70
     1
102
RTVSPropertyOp31
 70
     1
102
RTVSPropertyOp32
 70
     1
102
RTVSPropertyOp33
 70
     1
102
RTVSPropertyOp34
 70
     1
102
RTVSPropertyOp35
 70
     1
102
RTVSPropertyOp36
 70
     1
102
RTVSPropertyOp37
 70
     1
102
RTVSPropertyOp38
 70
     1
102
RTVSPropertyOp39
 70
     1
102
RTVSPropertyOp40
 70
     1
102
RTVSPropertyOp41
 70
     1
102
RTVSPropertyOp42
 70
     1
102
RTVSPropertyOp43
 70
     1
102
RTVSPropertyOp44
 70
     1
102
RTVSPropertyOp45
 70
     1
102
RTVSPropertyOp46
 70
     1
102
RTVSPropertyOp47
 70
     1
102
RTVSPropertyOp48
 70
     1
102
RTVSPropertyOp49
 70
     1
102
RTVSPropertyOp50
 70
     1
102
RTVSPropertyOp51
 70
     0
102
RTVSPropertyOp52
 70
     0
102
RTVSPropertyOp53
 70
     1
102
RTVSPropertyOp54
 70
     1
102
RTVSPropertyOp55
 70
     1
102
RTVSPropertyOp56
 70
     1
102
RTVSPropertyOp57
 70
     1
102
RTVSPost2010Prop28
280
     0
102
RTVSPost2010PropOp28
 70
     1
102
RTVSPost2010Prop29
280
     1
102
RTVSPost2010PropOp29
 70
     1
102
RTVSPost2010Prop30
280
     1
102
RTVSPost2010PropOp30
 70
     1
102
RTVSPost2010Prop31
280
     0
102
RTVSPost2010PropOp31
 70
     1
102
RTVSPost2010Prop32
280
     0
102
RTVSPost2010PropOp32
 70
     1
102
RTVSPost2010Prop33
280
     0
102
RTVSPost2010PropOp33
 70
     1
102
RTVSPost2010Prop34
280
     0
102
RTVSPost2010PropOp34
 70
     1
102
RTVSPost2010Prop35
280
     0
102
RTVSPost2010PropOp35
 70
     1
102
RTVSPost2010Prop36
280
     0
102
RTVSPost2010PropOp36
 70
     1
102
RTVSPost2010Prop37
 90
       50
102
RTVSPost2010PropOp37
 70
     1
102
RTVSPost2010Prop38
140
0.0
102
RTVSPost2010PropOp38
 70
     1
102
RTVSPost2010Prop39
140
1.0
102
RTVSPost2010PropOp39
 70
     1
102
RTVSPost2010Prop40
 90
        0
102
RTVSPost2010PropOp40
 70
     1
102
RTVSPost2010Prop41ColorIndex
 90
       18
102
RTVSPost2010Prop41ColorRGB
 90
        0
102
RTVSPost2010PropOp41
 70
     1
102
RTVSPost2010Prop42
 90
       50
102
RTVSPost2010PropOp42
 70
     1
102
RTVSPost2010Prop43
 90
        3
102
RTVSPost2010PropOp43
 70
     1
102
RTVSPost2010Prop44ColorIndex
 90
        5
102
RTVSPost2010Prop44ColorRGB
 90
      255
102
RTVSPost2010PropOp44
 70
     1
102
RTVSPost2010Prop45
280
     0
102
RTVSPost2010PropOp45
 70
     1
102
RTVSPost2010Prop46
 90
       50
102
RTVSPost2010PropOp46
 70
     1
102
RTVSPost2010Prop47
 90
       50
102
RTVSPost2010PropOp47
 70
     1
102
RTVSPost2010Prop48
 90
       50
102
RTVSPost2010PropOp48
 70
     1
102
RTVSPost2010Prop49
280
     0
102
RTVSPost2010PropOp49
 70
     1
102
RTVSPost2010Prop50
 90
       50
102
RTVSPost2010PropOp50
 70
     1
102
RTVSPost2010Prop51ColorIndex
 90
      256
102
RTVSPost2010Prop51ColorRGB
 90
-16777216
102
RTVSPost2010PropOp51
 70
     0
102
RTVSPost2010Prop52
140
1.0
102
RTVSPost2010PropOp52
 70
     0
102
RTVSPost2010Prop53
 90
        2
102
RTVSPost2010PropOp53
 70
     1
102
RTVSPost2010Prop54
  1
strokes_ogs.tif
102
RTVSPost2010PropOp54
 70
     1
102
RTVSPost2010Prop55
280
     0
102
RTVSPost2010PropOp55
 70
     1
102
RTVSPost2010Prop56
140
1.0
102
RTVSPost2010PropOp56
 70
     1
102
RTVSPost2010Prop57
140
1.0
102
RTVSPost2010PropOp57
 70
     1
  0
XRECORD
  5
378
102
{ACAD_REACTORS
330
377
102
}
330
377
100
AcDbXrecord
280
     1
102
RTVSPropertyOp0
 70
     1
102
RTVSPropertyOp1
 70
     1
102
RTVSPropertyOp2
 70
     1
102
RTVSPropertyOp3
 70
     1
102
RTVSPropertyOp4
 70
     1
102
RTVSPropertyOp5
 70
     1
102
RTVSPropertyOp6
 70
     1
102
RTVSPropertyOp7
 70
     1
102
RTVSPropertyOp8
 70
     1
102
RTVSPropertyOp9
 70
     1
102
RTVSPropertyOp10
 70
     1
102
RTVSPropertyOp11
 70
     1
102
RTVSPropertyOp12
 70
     1
102
RTVSPropertyOp13
 70
     1
102
RTVSPropertyOp14
 70
     1
102
RTVSPropertyOp15
 70
     1
102
RTVSPropertyOp16
 70
     1
102
RTVSPropertyOp17
 70
     1
102
RTVSPropertyOp18
 70
     1
102
RTVSPropertyOp19
 70
     1
102
RTVSPropertyOp20
 70
     1
102
RTVSPropertyOp21
 70
     1
102
RTVSPropertyOp22
 70
     1
102
RTVSPropertyOp23
 70
     1
102
RTVSPropertyOp24
 70
     1
102
RTVSPropertyOp25
 70
     1
102
RTVSPropertyOp26
 70
     1
102
RTVSPropertyOp27
 70
     1
102
RTVSPropertyOp28
 70
     1
102
RTVSPropertyOp29
 70
     1
102
RTVSPropertyOp30
 70
     1
102
RTVSPropertyOp31
 70
     1
102
RTVSPropertyOp32
 70
     1
102
RTVSPropertyOp33
 70
     1
102
RTVSPropertyOp34
 70
     1
102
RTVSPropertyOp35
 70
     1
102
RTVSPropertyOp36
 70
     1
102
RTVSPropertyOp37
 70
     1
102
RTVSPropertyOp38
 70
     1
102
RTVSPropertyOp39
 70
     1
102
RTVSPropertyOp40
 70
     1
102
RTVSPropertyOp41
 70
     1
102
RTVSPropertyOp42
 70
     1
102
RTVSPropertyOp43
 70
     1
102
RTVSPropertyOp44
 70
     1
102
RTVSPropertyOp45
 70
     1
102
RTVSPropertyOp46
 70
     1
102
RTVSPropertyOp47
 70
     1
102
RTVSPropertyOp48
 70
     1
102
RTVSPropertyOp49
 70
     1
102
RTVSPropertyOp50
 70
     1
102
RTVSPropertyOp51
 70
     0
102
RTVSPropertyOp52
 70
     0
102
RTVSPropertyOp53
 70
     1
102
RTVSPropertyOp54
 70
     1
102
RTVSPropertyOp55
 70
     1
102
RTVSPropertyOp56
 70
     1
102
RTVSPropertyOp57
 70
     1
102
RTVSPost2010Prop28
280
     0
102
RTVSPost2010PropOp28
 70
     1
102
RTVSPost2010Prop29
280
     1
102
RTVSPost2010PropOp29
 70
     1
102
RTVSPost2010Prop30
280
     1
102
RTVSPost2010PropOp30
 70
     1
102
RTVSPost2010Prop31
280
     0
102
RTVSPost2010PropOp31
 70
     1
102
RTVSPost2010Prop32
280
     0
102
RTVSPost2010PropOp32
 70
     1
102
RTVSPost2010Prop33
280
     0
102
RTVSPost2010PropOp33
 70
     1
102
RTVSPost2010Prop34
280
     0
102
RTVSPost2010PropOp34
 70
     1
102
RTVSPost2010Prop35
280
     0
102
RTVSPost2010PropOp35
 70
     1
102
RTVSPost2010Prop36
280
     0
102
RTVSPost2010PropOp36
 70
     1
102
RTVSPost2010Prop37
 90
       50
102
RTVSPost2010PropOp37
 70
     1
102
RTVSPost2010Prop38
140
0.0
102
RTVSPost2010PropOp38
 70
     1
102
RTVSPost2010Prop39
140
1.0
102
RTVSPost2010PropOp39
 70
     1
102
RTVSPost2010Prop40
 90
        0
102
RTVSPost2010PropOp40
 70
     1
102
RTVSPost2010Prop41ColorIndex
 90
       18
102
RTVSPost2010Prop41ColorRGB
 90
        0
102
RTVSPost2010PropOp41
 70
     1
102
RTVSPost2010Prop42
 90
       50
102
RTVSPost2010PropOp42
 70
     1
102
RTVSPost2010Prop43
 90
        3
102
RTVSPost2010PropOp43
 70
     1
102
RTVSPost2010Prop44ColorIndex
 90
        5
102
RTVSPost2010Prop44ColorRGB
 90
      255
102
RTVSPost2010PropOp44
 70
     1
102
RTVSPost2010Prop45
280
     0
102
RTVSPost2010PropOp45
 70
     1
102
RTVSPost2010Prop46
 90
       50
102
RTVSPost2010PropOp46
 70
     1
102
RTVSPost2010Prop47
 90
       50
102
RTVSPost2010PropOp47
 70
     1
102
RTVSPost2010Prop48
 90
       50
102
RTVSPost2010PropOp48
 70
     1
102
RTVSPost2010Prop49
280
     0
102
RTVSPost2010PropOp49
 70
     1
102
RTVSPost2010Prop50
 90
       50
102
RTVSPost2010PropOp50
 70
     1
102
RTVSPost2010Prop51ColorIndex
 90
      256
102
RTVSPost2010Prop51ColorRGB
 90
-16777216
102
RTVSPost2010PropOp51
 70
     0
102
RTVSPost2010Prop52
140
1.0
102
RTVSPost2010PropOp52
 70
     0
102
RTVSPost2010Prop53
 90
        2
102
RTVSPost2010PropOp53
 70
     1
102
RTVSPost2010Prop54
  1
strokes_ogs.tif
102
RTVSPost2010PropOp54
 70
     1
102
RTVSPost2010Prop55
280
     0
102
RTVSPost2010PropOp55
 70
     1
102
RTVSPost2010Prop56
140
1.0
102
RTVSPost2010PropOp56
 70
     1
102
RTVSPost2010Prop57
140
1.0
102
RTVSPost2010PropOp57
 70
     1
  0
XRECORD
  5
38C
102
{ACAD_REACTORS
330
38B
102
}
330
38B
100
AcDbXrecord
280
     1
102
RTVSPropertyOp0
 70
     0
102
RTVSPropertyOp1
 70
     0
102
RTVSPropertyOp2
 70
     0
102
RTVSPropertyOp3
 70
     0
102
RTVSPropertyOp4
 70
     0
102
RTVSPropertyOp5
 70
     0
102
RTVSPropertyOp6
 70
     0
102
RTVSPropertyOp7
 70
     0
102
RTVSPropertyOp8
 70
     0
102
RTVSPropertyOp9
 70
     0
102
RTVSPropertyOp10
 70
     0
102
RTVSPropertyOp11
 70
     0
102
RTVSPropertyOp12
 70
     0
102
RTVSPropertyOp13
 70
     0
102
RTVSPropertyOp14
 70
     2
102
RTVSPropertyOp15
 70
     0
102
RTVSPropertyOp16
 70
     0
102
RTVSPropertyOp17
 70
     0
102
RTVSPropertyOp18
 70
     0
102
RTVSPropertyOp19
 70
     0
102
RTVSPropertyOp20
 70
     0
102
RTVSPropertyOp21
 70
     0
102
RTVSPropertyOp22
 70
     0
102
RTVSPropertyOp23
 70
     0
102
RTVSPropertyOp24
 70
     0
102
RTVSPropertyOp25
 70
     0
102
RTVSPropertyOp26
 70
     0
102
RTVSPropertyOp27
 70
     0
102
RTVSPropertyOp28
 70
     0
102
RTVSPropertyOp29
 70
     0
102
RTVSPropertyOp30
 70
     0
102
RTVSPropertyOp31
 70
     0
102
RTVSPropertyOp32
 70
     0
102
RTVSPropertyOp33
 70
     0
102
RTVSPropertyOp34
 70
     0
102
RTVSPropertyOp35
 70
     0
102
RTVSPropertyOp36
 70
     0
102
RTVSPropertyOp37
 70
     0
102
RTVSPropertyOp38
 70
     0
102
RTVSPropertyOp39
 70
     0
102
RTVSPropertyOp40
 70
     0
102
RTVSPropertyOp41
 70
     0
102
RTVSPropertyOp42
 70
     0
102
RTVSPropertyOp43
 70
     0
102
RTVSPropertyOp44
 70
     0
102
RTVSPropertyOp45
 70
     0
102
RTVSPropertyOp46
 70
     0
102
RTVSPropertyOp47
 70
     0
102
RTVSPropertyOp48
 70
     0
102
RTVSPropertyOp49
 70
     0
102
RTVSPropertyOp50
 70
     0
102
RTVSPropertyOp51
 70
     0
102
RTVSPropertyOp52
 70
     0
102
RTVSPropertyOp53
 70
     0
102
RTVSPropertyOp54
 70
     0
102
RTVSPropertyOp55
 70
     0
102
RTVSPropertyOp56
 70
     0
102
RTVSPropertyOp57
 70
     0
102
RTVSPost2010Prop28
280
     0
102
RTVSPost2010PropOp28
 70
     0
102
RTVSPost2010Prop29
280
     1
102
RTVSPost2010PropOp29
 70
     0
102
RTVSPost2010Prop30
280
     1
102
RTVSPost2010PropOp30
 70
     0
102
RTVSPost2010Prop31
280
     0
102
RTVSPost2010PropOp31
 70
     0
102
RTVSPost2010Prop32
280
     0
102
RTVSPost2010PropOp32
 70
     0
102
RTVSPost2010Prop33
280
     0
102
RTVSPost2010PropOp33
 70
     0
102
RTVSPost2010Prop34
280
     0
102
RTVSPost2010PropOp34
 70
     0
102
RTVSPost2010Prop35
280
     0
102
RTVSPost2010PropOp35
 70
     0
102
RTVSPost2010Prop36
280
     0
102
RTVSPost2010PropOp36
 70
     0
102
RTVSPost2010Prop37
 90
       50
102
RTVSPost2010PropOp37
 70
     0
102
RTVSPost2010Prop38
140
0.0
102
RTVSPost2010PropOp38
 70
     0
102
RTVSPost2010Prop39
140
1.0
102
RTVSPost2010PropOp39
 70
     0
102
RTVSPost2010Prop40
 90
        0
102
RTVSPost2010PropOp40
 70
     0
102
RTVSPost2010Prop41ColorIndex
 90
       18
102
RTVSPost2010Prop41ColorRGB
 90
        0
102
RTVSPost2010PropOp41
 70
     0
102
RTVSPost2010Prop42
 90
       50
102
RTVSPost2010PropOp42
 70
     0
102
RTVSPost2010Prop43
 90
        3
102
RTVSPost2010PropOp43
 70
     0
102
RTVSPost2010Prop44ColorIndex
 90
        5
102
RTVSPost2010Prop44ColorRGB
 90
      255
102
RTVSPost2010PropOp44
 70
     0
102
RTVSPost2010Prop45
280
     0
102
RTVSPost2010PropOp45
 70
     0
102
RTVSPost2010Prop46
 90
       50
102
RTVSPost2010PropOp46
 70
     0
102
RTVSPost2010Prop47
 90
       50
102
RTVSPost2010PropOp47
 70
     0
102
RTVSPost2010Prop48
 90
       50
102
RTVSPost2010PropOp48
 70
     0
102
RTVSPost2010Prop49
280
     0
102
RTVSPost2010PropOp49
 70
     0
102
RTVSPost2010Prop50
 90
       50
102
RTVSPost2010PropOp50
 70
     0
102
RTVSPost2010Prop51ColorIndex
 90
      256
102
RTVSPost2010Prop51ColorRGB
 90
-16777216
102
RTVSPost2010PropOp51
 70
     0
102
RTVSPost2010Prop52
140
1.0
102
RTVSPost2010PropOp52
 70
     0
102
RTVSPost2010Prop53
 90
        2
102
RTVSPost2010PropOp53
 70
     0
102
RTVSPost2010Prop54
  1
strokes_ogs.tif
102
RTVSPost2010PropOp54
 70
     0
102
RTVSPost2010Prop55
280
     0
102
RTVSPost2010PropOp55
 70
     0
102
RTVSPost2010Prop56
140
1.0
102
RTVSPost2010PropOp56
 70
     0
102
RTVSPost2010Prop57
140
1.0
102
RTVSPost2010PropOp57
 70
     0
  0
XRECORD
  5
386
102
{ACAD_REACTORS
330
385
102
}
330
385
100
AcDbXrecord
280
     1
102
RTVSPropertyOp0
 70
     1
102
RTVSPropertyOp1
 70
     1
102
RTVSPropertyOp2
 70
     1
102
RTVSPropertyOp3
 70
     1
102
RTVSPropertyOp4
 70
     1
102
RTVSPropertyOp5
 70
     1
102
RTVSPropertyOp6
 70
     1
102
RTVSPropertyOp7
 70
     1
102
RTVSPropertyOp8
 70
     1
102
RTVSPropertyOp9
 70
     1
102
RTVSPropertyOp10
 70
     1
102
RTVSPropertyOp11
 70
     1
102
RTVSPropertyOp12
 70
     1
102
RTVSPropertyOp13
 70
     1
102
RTVSPropertyOp14
 70
     1
102
RTVSPropertyOp15
 70
     1
102
RTVSPropertyOp16
 70
     1
102
RTVSPropertyOp17
 70
     1
102
RTVSPropertyOp18
 70
     1
102
RTVSPropertyOp19
 70
     1
102
RTVSPropertyOp20
 70
     1
102
RTVSPropertyOp21
 70
     1
102
RTVSPropertyOp22
 70
     1
102
RTVSPropertyOp23
 70
     1
102
RTVSPropertyOp24
 70
     1
102
RTVSPropertyOp25
 70
     1
102
RTVSPropertyOp26
 70
     1
102
RTVSPropertyOp27
 70
     1
102
RTVSPropertyOp28
 70
     1
102
RTVSPropertyOp29
 70
     1
102
RTVSPropertyOp30
 70
     1
102
RTVSPropertyOp31
 70
     1
102
RTVSPropertyOp32
 70
     1
102
RTVSPropertyOp33
 70
     1
102
RTVSPropertyOp34
 70
     1
102
RTVSPropertyOp35
 70
     1
102
RTVSPropertyOp36
 70
     1
102
RTVSPropertyOp37
 70
     1
102
RTVSPropertyOp38
 70
     1
102
RTVSPropertyOp39
 70
     1
102
RTVSPropertyOp40
 70
     1
102
RTVSPropertyOp41
 70
     1
102
RTVSPropertyOp42
 70
     1
102
RTVSPropertyOp43
 70
     1
102
RTVSPropertyOp44
 70
     1
102
RTVSPropertyOp45
 70
     1
102
RTVSPropertyOp46
 70
     1
102
RTVSPropertyOp47
 70
     1
102
RTVSPropertyOp48
 70
     1
102
RTVSPropertyOp49
 70
     1
102
RTVSPropertyOp50
 70
     1
102
RTVSPropertyOp51
 70
     0
102
RTVSPropertyOp52
 70
     0
102
RTVSPropertyOp53
 70
     1
102
RTVSPropertyOp54
 70
     1
102
RTVSPropertyOp55
 70
     1
102
RTVSPropertyOp56
 70
     1
102
RTVSPropertyOp57
 70
     1
102
RTVSPost2010Prop28
280
     0
102
RTVSPost2010PropOp28
 70
     1
102
RTVSPost2010Prop29
280
     1
102
RTVSPost2010PropOp29
 70
     1
102
RTVSPost2010Prop30
280
     1
102
RTVSPost2010PropOp30
 70
     1
102
RTVSPost2010Prop31
280
     0
102
RTVSPost2010PropOp31
 70
     1
102
RTVSPost2010Prop32
280
     0
102
RTVSPost2010PropOp32
 70
     1
102
RTVSPost2010Prop33
280
     0
102
RTVSPost2010PropOp33
 70
     1
102
RTVSPost2010Prop34
280
     0
102
RTVSPost2010PropOp34
 70
     1
102
RTVSPost2010Prop35
280
     0
102
RTVSPost2010PropOp35
 70
     1
102
RTVSPost2010Prop36
280
     0
102
RTVSPost2010PropOp36
 70
     1
102
RTVSPost2010Prop37
 90
       50
102
RTVSPost2010PropOp37
 70
     1
102
RTVSPost2010Prop38
140
0.0
102
RTVSPost2010PropOp38
 70
     1
102
RTVSPost2010Prop39
140
1.0
102
RTVSPost2010PropOp39
 70
     1
102
RTVSPost2010Prop40
 90
        0
102
RTVSPost2010PropOp40
 70
     1
102
RTVSPost2010Prop41ColorIndex
 90
       18
102
RTVSPost2010Prop41ColorRGB
 90
        0
102
RTVSPost2010PropOp41
 70
     1
102
RTVSPost2010Prop42
 90
       50
102
RTVSPost2010PropOp42
 70
     1
102
RTVSPost2010Prop43
 90
        3
102
RTVSPost2010PropOp43
 70
     1
102
RTVSPost2010Prop44ColorIndex
 90
        5
102
RTVSPost2010Prop44ColorRGB
 90
      255
102
RTVSPost2010PropOp44
 70
     1
102
RTVSPost2010Prop45
280
     0
102
RTVSPost2010PropOp45
 70
     1
102
RTVSPost2010Prop46
 90
       50
102
RTVSPost2010PropOp46
 70
     1
102
RTVSPost2010Prop47
 90
       50
102
RTVSPost2010PropOp47
 70
     1
102
RTVSPost2010Prop48
 90
       50
102
RTVSPost2010PropOp48
 70
     1
102
RTVSPost2010Prop49
280
     0
102
RTVSPost2010PropOp49
 70
     1
102
RTVSPost2010Prop50
 90
       50
102
RTVSPost2010PropOp50
 70
     1
102
RTVSPost2010Prop51ColorIndex
 90
      256
102
RTVSPost2010Prop51ColorRGB
 90
-16777216
102
RTVSPost2010PropOp51
 70
     0
102
RTVSPost2010Prop52
140
1.0
102
RTVSPost2010PropOp52
 70
     0
102
RTVSPost2010Prop53
 90
        2
102
RTVSPost2010PropOp53
 70
     1
102
RTVSPost2010Prop54
  1
strokes_ogs.tif
102
RTVSPost2010PropOp54
 70
     1
102
RTVSPost2010Prop55
280
     0
102
RTVSPost2010PropOp55
 70
     1
102
RTVSPost2010Prop56
140
1.0
102
RTVSPost2010PropOp56
 70
     1
102
RTVSPost2010Prop57
140
1.0
102
RTVSPost2010PropOp57
 70
     1
  0
XRECORD
  5
38E
102
{ACAD_REACTORS
330
38D
102
}
330
38D
100
AcDbXrecord
280
     1
102
RTVSPropertyOp0
 70
     0
102
RTVSPropertyOp1
 70
     0
102
RTVSPropertyOp2
 70
     0
102
RTVSPropertyOp3
 70
     0
102
RTVSPropertyOp4
 70
     0
102
RTVSPropertyOp5
 70
     0
102
RTVSPropertyOp6
 70
     0
102
RTVSPropertyOp7
 70
     0
102
RTVSPropertyOp8
 70
     0
102
RTVSPropertyOp9
 70
     0
102
RTVSPropertyOp10
 70
     0
102
RTVSPropertyOp11
 70
     0
102
RTVSPropertyOp12
 70
     0
102
RTVSPropertyOp13
 70
     0
102
RTVSPropertyOp14
 70
     2
102
RTVSPropertyOp15
 70
     0
102
RTVSPropertyOp16
 70
     0
102
RTVSPropertyOp17
 70
     0
102
RTVSPropertyOp18
 70
     0
102
RTVSPropertyOp19
 70
     0
102
RTVSPropertyOp20
 70
     0
102
RTVSPropertyOp21
 70
     0
102
RTVSPropertyOp22
 70
     0
102
RTVSPropertyOp23
 70
     0
102
RTVSPropertyOp24
 70
     0
102
RTVSPropertyOp25
 70
     0
102
RTVSPropertyOp26
 70
     0
102
RTVSPropertyOp27
 70
     0
102
RTVSPropertyOp28
 70
     0
102
RTVSPropertyOp29
 70
     0
102
RTVSPropertyOp30
 70
     0
102
RTVSPropertyOp31
 70
     0
102
RTVSPropertyOp32
 70
     0
102
RTVSPropertyOp33
 70
     0
102
RTVSPropertyOp34
 70
     0
102
RTVSPropertyOp35
 70
     0
102
RTVSPropertyOp36
 70
     0
102
RTVSPropertyOp37
 70
     0
102
RTVSPropertyOp38
 70
     0
102
RTVSPropertyOp39
 70
     0
102
RTVSPropertyOp40
 70
     0
102
RTVSPropertyOp41
 70
     0
102
RTVSPropertyOp42
 70
     0
102
RTVSPropertyOp43
 70
     0
102
RTVSPropertyOp44
 70
     0
102
RTVSPropertyOp45
 70
     0
102
RTVSPropertyOp46
 70
     0
102
RTVSPropertyOp47
 70
     0
102
RTVSPropertyOp48
 70
     0
102
RTVSPropertyOp49
 70
     0
102
RTVSPropertyOp50
 70
     0
102
RTVSPropertyOp51
 70
     0
102
RTVSPropertyOp52
 70
     0
102
RTVSPropertyOp53
 70
     0
102
RTVSPropertyOp54
 70
     0
102
RTVSPropertyOp55
 70
     0
102
RTVSPropertyOp56
 70
     0
102
RTVSPropertyOp57
 70
     0
102
RTVSPost2010Prop28
280
     0
102
RTVSPost2010PropOp28
 70
     0
102
RTVSPost2010Prop29
280
     1
102
RTVSPost2010PropOp29
 70
     0
102
RTVSPost2010Prop30
280
     1
102
RTVSPost2010PropOp30
 70
     0
102
RTVSPost2010Prop31
280
     0
102
RTVSPost2010PropOp31
 70
     0
102
RTVSPost2010Prop32
280
     0
102
RTVSPost2010PropOp32
 70
     0
102
RTVSPost2010Prop33
280
     0
102
RTVSPost2010PropOp33
 70
     0
102
RTVSPost2010Prop34
280
     0
102
RTVSPost2010PropOp34
 70
     0
102
RTVSPost2010Prop35
280
     0
102
RTVSPost2010PropOp35
 70
     0
102
RTVSPost2010Prop36
280
     0
102
RTVSPost2010PropOp36
 70
     0
102
RTVSPost2010Prop37
 90
       50
102
RTVSPost2010PropOp37
 70
     0
102
RTVSPost2010Prop38
140
0.0
102
RTVSPost2010PropOp38
 70
     0
102
RTVSPost2010Prop39
140
1.0
102
RTVSPost2010PropOp39
 70
     0
102
RTVSPost2010Prop40
 90
        0
102
RTVSPost2010PropOp40
 70
     0
102
RTVSPost2010Prop41ColorIndex
 90
       18
102
RTVSPost2010Prop41ColorRGB
 90
        0
102
RTVSPost2010PropOp41
 70
     0
102
RTVSPost2010Prop42
 90
       50
102
RTVSPost2010PropOp42
 70
     0
102
RTVSPost2010Prop43
 90
        3
102
RTVSPost2010PropOp43
 70
     0
102
RTVSPost2010Prop44ColorIndex
 90
        5
102
RTVSPost2010Prop44ColorRGB
 90
      255
102
RTVSPost2010PropOp44
 70
     0
102
RTVSPost2010Prop45
280
     0
102
RTVSPost2010PropOp45
 70
     0
102
RTVSPost2010Prop46
 90
       50
102
RTVSPost2010PropOp46
 70
     0
102
RTVSPost2010Prop47
 90
       50
102
RTVSPost2010PropOp47
 70
     0
102
RTVSPost2010Prop48
 90
       50
102
RTVSPost2010PropOp48
 70
     0
102
RTVSPost2010Prop49
280
     0
102
RTVSPost2010PropOp49
 70
     0
102
RTVSPost2010Prop50
 90
       50
102
RTVSPost2010PropOp50
 70
     0
102
RTVSPost2010Prop51ColorIndex
 90
      256
102
RTVSPost2010Prop51ColorRGB
 90
-16777216
102
RTVSPost2010PropOp51
 70
     0
102
RTVSPost2010Prop52
140
1.0
102
RTVSPost2010PropOp52
 70
     0
102
RTVSPost2010Prop53
 90
        2
102
RTVSPost2010PropOp53
 70
     0
102
RTVSPost2010Prop54
  1
strokes_ogs.tif
102
RTVSPost2010PropOp54
 70
     0
102
RTVSPost2010Prop55
280
     0
102
RTVSPost2010PropOp55
 70
     0
102
RTVSPost2010Prop56
140
1.0
102
RTVSPost2010PropOp56
 70
     0
102
RTVSPost2010Prop57
140
1.0
102
RTVSPost2010PropOp57
 70
     0
  0
XRECORD
  5
37C
102
{ACAD_REACTORS
330
37B
102
}
330
37B
100
AcDbXrecord
280
     1
102
RTVSPropertyOp0
 70
     1
102
RTVSPropertyOp1
 70
     1
102
RTVSPropertyOp2
 70
     1
102
RTVSPropertyOp3
 70
     1
102
RTVSPropertyOp4
 70
     1
102
RTVSPropertyOp5
 70
     1
102
RTVSPropertyOp6
 70
     1
102
RTVSPropertyOp7
 70
     1
102
RTVSPropertyOp8
 70
     1
102
RTVSPropertyOp9
 70
     1
102
RTVSPropertyOp10
 70
     1
102
RTVSPropertyOp11
 70
     1
102
RTVSPropertyOp12
 70
     1
102
RTVSPropertyOp13
 70
     1
102
RTVSPropertyOp14
 70
     1
102
RTVSPropertyOp15
 70
     1
102
RTVSPropertyOp16
 70
     1
102
RTVSPropertyOp17
 70
     1
102
RTVSPropertyOp18
 70
     1
102
RTVSPropertyOp19
 70
     1
102
RTVSPropertyOp20
 70
     1
102
RTVSPropertyOp21
 70
     1
102
RTVSPropertyOp22
 70
     1
102
RTVSPropertyOp23
 70
     1
102
RTVSPropertyOp24
 70
     1
102
RTVSPropertyOp25
 70
     1
102
RTVSPropertyOp26
 70
     1
102
RTVSPropertyOp27
 70
     1
102
RTVSPropertyOp28
 70
     1
102
RTVSPropertyOp29
 70
     1
102
RTVSPropertyOp30
 70
     1
102
RTVSPropertyOp31
 70
     1
102
RTVSPropertyOp32
 70
     1
102
RTVSPropertyOp33
 70
     1
102
RTVSPropertyOp34
 70
     1
102
RTVSPropertyOp35
 70
     1
102
RTVSPropertyOp36
 70
     1
102
RTVSPropertyOp37
 70
     1
102
RTVSPropertyOp38
 70
     1
102
RTVSPropertyOp39
 70
     1
102
RTVSPropertyOp40
 70
     1
102
RTVSPropertyOp41
 70
     1
102
RTVSPropertyOp42
 70
     1
102
RTVSPropertyOp43
 70
     1
102
RTVSPropertyOp44
 70
     1
102
RTVSPropertyOp45
 70
     1
102
RTVSPropertyOp46
 70
     1
102
RTVSPropertyOp47
 70
     1
102
RTVSPropertyOp48
 70
     1
102
RTVSPropertyOp49
 70
     1
102
RTVSPropertyOp50
 70
     1
102
RTVSPropertyOp51
 70
     0
102
RTVSPropertyOp52
 70
     0
102
RTVSPropertyOp53
 70
     1
102
RTVSPropertyOp54
 70
     1
102
RTVSPropertyOp55
 70
     1
102
RTVSPropertyOp56
 70
     1
102
RTVSPropertyOp57
 70
     1
102
RTVSPost2010Prop28
280
     0
102
RTVSPost2010PropOp28
 70
     1
102
RTVSPost2010Prop29
280
     1
102
RTVSPost2010PropOp29
 70
     1
102
RTVSPost2010Prop30
280
     1
102
RTVSPost2010PropOp30
 70
     1
102
RTVSPost2010Prop31
280
     0
102
RTVSPost2010PropOp31
 70
     1
102
RTVSPost2010Prop32
280
     0
102
RTVSPost2010PropOp32
 70
     1
102
RTVSPost2010Prop33
280
     0
102
RTVSPost2010PropOp33
 70
     1
102
RTVSPost2010Prop34
280
     0
102
RTVSPost2010PropOp34
 70
     1
102
RTVSPost2010Prop35
280
     0
102
RTVSPost2010PropOp35
 70
     1
102
RTVSPost2010Prop36
280
     0
102
RTVSPost2010PropOp36
 70
     1
102
RTVSPost2010Prop37
 90
       50
102
RTVSPost2010PropOp37
 70
     1
102
RTVSPost2010Prop38
140
0.0
102
RTVSPost2010PropOp38
 70
     1
102
RTVSPost2010Prop39
140
1.0
102
RTVSPost2010PropOp39
 70
     1
102
RTVSPost2010Prop40
 90
        0
102
RTVSPost2010PropOp40
 70
     1
102
RTVSPost2010Prop41ColorIndex
 90
       18
102
RTVSPost2010Prop41ColorRGB
 90
        0
102
RTVSPost2010PropOp41
 70
     1
102
RTVSPost2010Prop42
 90
       50
102
RTVSPost2010PropOp42
 70
     1
102
RTVSPost2010Prop43
 90
        3
102
RTVSPost2010PropOp43
 70
     1
102
RTVSPost2010Prop44ColorIndex
 90
        5
102
RTVSPost2010Prop44ColorRGB
 90
      255
102
RTVSPost2010PropOp44
 70
     1
102
RTVSPost2010Prop45
280
     0
102
RTVSPost2010PropOp45
 70
     1
102
RTVSPost2010Prop46
 90
       50
102
RTVSPost2010PropOp46
 70
     1
102
RTVSPost2010Prop47
 90
       50
102
RTVSPost2010PropOp47
 70
     1
102
RTVSPost2010Prop48
 90
       50
102
RTVSPost2010PropOp48
 70
     1
102
RTVSPost2010Prop49
280
     0
102
RTVSPost2010PropOp49
 70
     1
102
RTVSPost2010Prop50
 90
       50
102
RTVSPost2010PropOp50
 70
     1
102
RTVSPost2010Prop51ColorIndex
 90
      256
102
RTVSPost2010Prop51ColorRGB
 90
-16777216
102
RTVSPost2010PropOp51
 70
     0
102
RTVSPost2010Prop52
140
1.0
102
RTVSPost2010PropOp52
 70
     0
102
RTVSPost2010Prop53
 90
        2
102
RTVSPost2010PropOp53
 70
     1
102
RTVSPost2010Prop54
  1
strokes_ogs.tif
102
RTVSPost2010PropOp54
 70
     1
102
RTVSPost2010Prop55
280
     0
102
RTVSPost2010PropOp55
 70
     1
102
RTVSPost2010Prop56
140
1.0
102
RTVSPost2010PropOp56
 70
     1
102
RTVSPost2010Prop57
140
1.0
102
RTVSPost2010PropOp57
 70
     1
  0
XRECORD
  5
39A
102
{ACAD_REACTORS
330
399
102
}
330
399
100
AcDbXrecord
280
     1
102
RTVSPropertyOp0
 70
     1
102
RTVSPropertyOp1
 70
     1
102
RTVSPropertyOp2
 70
     1
102
RTVSPropertyOp3
 70
     1
102
RTVSPropertyOp4
 70
     1
102
RTVSPropertyOp5
 70
     1
102
RTVSPropertyOp6
 70
     1
102
RTVSPropertyOp7
 70
     1
102
RTVSPropertyOp8
 70
     1
102
RTVSPropertyOp9
 70
     1
102
RTVSPropertyOp10
 70
     1
102
RTVSPropertyOp11
 70
     1
102
RTVSPropertyOp12
 70
     1
102
RTVSPropertyOp13
 70
     1
102
RTVSPropertyOp14
 70
     1
102
RTVSPropertyOp15
 70
     1
102
RTVSPropertyOp16
 70
     1
102
RTVSPropertyOp17
 70
     1
102
RTVSPropertyOp18
 70
     1
102
RTVSPropertyOp19
 70
     1
102
RTVSPropertyOp20
 70
     1
102
RTVSPropertyOp21
 70
     1
102
RTVSPropertyOp22
 70
     1
102
RTVSPropertyOp23
 70
     1
102
RTVSPropertyOp24
 70
     1
102
RTVSPropertyOp25
 70
     1
102
RTVSPropertyOp26
 70
     1
102
RTVSPropertyOp27
 70
     1
102
RTVSPropertyOp28
 70
     1
102
RTVSPropertyOp29
 70
     1
102
RTVSPropertyOp30
 70
     1
102
RTVSPropertyOp31
 70
     1
102
RTVSPropertyOp32
 70
     1
102
RTVSPropertyOp33
 70
     1
102
RTVSPropertyOp34
 70
     1
102
RTVSPropertyOp35
 70
     1
102
RTVSPropertyOp36
 70
     1
102
RTVSPropertyOp37
 70
     1
102
RTVSPropertyOp38
 70
     1
102
RTVSPropertyOp39
 70
     1
102
RTVSPropertyOp40
 70
     1
102
RTVSPropertyOp41
 70
     1
102
RTVSPropertyOp42
 70
     1
102
RTVSPropertyOp43
 70
     1
102
RTVSPropertyOp44
 70
     1
102
RTVSPropertyOp45
 70
     1
102
RTVSPropertyOp46
 70
     1
102
RTVSPropertyOp47
 70
     1
102
RTVSPropertyOp48
 70
     1
102
RTVSPropertyOp49
 70
     1
102
RTVSPropertyOp50
 70
     1
102
RTVSPropertyOp51
 70
     0
102
RTVSPropertyOp52
 70
     0
102
RTVSPropertyOp53
 70
     1
102
RTVSPropertyOp54
 70
     1
102
RTVSPropertyOp55
 70
     1
102
RTVSPropertyOp56
 70
     1
102
RTVSPropertyOp57
 70
     1
102
RTVSPost2010Prop28
280
     0
102
RTVSPost2010PropOp28
 70
     1
102
RTVSPost2010Prop29
280
     1
102
RTVSPost2010PropOp29
 70
     1
102
RTVSPost2010Prop30
280
     1
102
RTVSPost2010PropOp30
 70
     1
102
RTVSPost2010Prop31
280
     0
102
RTVSPost2010PropOp31
 70
     1
102
RTVSPost2010Prop32
280
     0
102
RTVSPost2010PropOp32
 70
     1
102
RTVSPost2010Prop33
280
     0
102
RTVSPost2010PropOp33
 70
     1
102
RTVSPost2010Prop34
280
     0
102
RTVSPost2010PropOp34
 70
     1
102
RTVSPost2010Prop35
280
     0
102
RTVSPost2010PropOp35
 70
     1
102
RTVSPost2010Prop36
280
     0
102
RTVSPost2010PropOp36
 70
     1
102
RTVSPost2010Prop37
 90
       50
102
RTVSPost2010PropOp37
 70
     1
102
RTVSPost2010Prop38
140
0.0
102
RTVSPost2010PropOp38
 70
     1
102
RTVSPost2010Prop39
140
1.0
102
RTVSPost2010PropOp39
 70
     1
102
RTVSPost2010Prop40
 90
        0
102
RTVSPost2010PropOp40
 70
     1
102
RTVSPost2010Prop41ColorIndex
 90
       18
102
RTVSPost2010Prop41ColorRGB
 90
        0
102
RTVSPost2010PropOp41
 70
     1
102
RTVSPost2010Prop42
 90
       50
102
RTVSPost2010PropOp42
 70
     1
102
RTVSPost2010Prop43
 90
        3
102
RTVSPost2010PropOp43
 70
     1
102
RTVSPost2010Prop44ColorIndex
 90
        5
102
RTVSPost2010Prop44ColorRGB
 90
      255
102
RTVSPost2010PropOp44
 70
     1
102
RTVSPost2010Prop45
280
     0
102
RTVSPost2010PropOp45
 70
     1
102
RTVSPost2010Prop46
 90
       50
102
RTVSPost2010PropOp46
 70
     1
102
RTVSPost2010Prop47
 90
       50
102
RTVSPost2010PropOp47
 70
     1
102
RTVSPost2010Prop48
 90
       50
102
RTVSPost2010PropOp48
 70
     1
102
RTVSPost2010Prop49
280
     0
102
RTVSPost2010PropOp49
 70
     1
102
RTVSPost2010Prop50
 90
       50
102
RTVSPost2010PropOp50
 70
     1
102
RTVSPost2010Prop51ColorIndex
 90
      256
102
RTVSPost2010Prop51ColorRGB
 90
-16777216
102
RTVSPost2010PropOp51
 70
     0
102
RTVSPost2010Prop52
140
1.0
102
RTVSPost2010PropOp52
 70
     0
102
RTVSPost2010Prop53
 90
        2
102
RTVSPost2010PropOp53
 70
     1
102
RTVSPost2010Prop54
  1
strokes_ogs.tif
102
RTVSPost2010PropOp54
 70
     1
102
RTVSPost2010Prop55
280
     0
102
RTVSPost2010PropOp55
 70
     1
102
RTVSPost2010Prop56
140
1.0
102
RTVSPost2010PropOp56
 70
     1
102
RTVSPost2010Prop57
140
1.0
102
RTVSPost2010PropOp57
 70
     1
  0
XRECORD
  5
398
102
{ACAD_REACTORS
330
397
102
}
330
397
100
AcDbXrecord
280
     1
102
RTVSPropertyOp0
 70
     1
102
RTVSPropertyOp1
 70
     1
102
RTVSPropertyOp2
 70
     1
102
RTVSPropertyOp3
 70
     1
102
RTVSPropertyOp4
 70
     1
102
RTVSPropertyOp5
 70
     1
102
RTVSPropertyOp6
 70
     1
102
RTVSPropertyOp7
 70
     1
102
RTVSPropertyOp8
 70
     1
102
RTVSPropertyOp9
 70
     1
102
RTVSPropertyOp10
 70
     1
102
RTVSPropertyOp11
 70
     1
102
RTVSPropertyOp12
 70
     1
102
RTVSPropertyOp13
 70
     1
102
RTVSPropertyOp14
 70
     1
102
RTVSPropertyOp15
 70
     1
102
RTVSPropertyOp16
 70
     1
102
RTVSPropertyOp17
 70
     1
102
RTVSPropertyOp18
 70
     1
102
RTVSPropertyOp19
 70
     1
102
RTVSPropertyOp20
 70
     1
102
RTVSPropertyOp21
 70
     1
102
RTVSPropertyOp22
 70
     1
102
RTVSPropertyOp23
 70
     1
102
RTVSPropertyOp24
 70
     1
102
RTVSPropertyOp25
 70
     1
102
RTVSPropertyOp26
 70
     1
102
RTVSPropertyOp27
 70
     1
102
RTVSPropertyOp28
 70
     1
102
RTVSPropertyOp29
 70
     1
102
RTVSPropertyOp30
 70
     1
102
RTVSPropertyOp31
 70
     1
102
RTVSPropertyOp32
 70
     1
102
RTVSPropertyOp33
 70
     1
102
RTVSPropertyOp34
 70
     1
102
RTVSPropertyOp35
 70
     1
102
RTVSPropertyOp36
 70
     1
102
RTVSPropertyOp37
 70
     1
102
RTVSPropertyOp38
 70
     1
102
RTVSPropertyOp39
 70
     1
102
RTVSPropertyOp40
 70
     1
102
RTVSPropertyOp41
 70
     1
102
RTVSPropertyOp42
 70
     1
102
RTVSPropertyOp43
 70
     1
102
RTVSPropertyOp44
 70
     1
102
RTVSPropertyOp45
 70
     1
102
RTVSPropertyOp46
 70
     1
102
RTVSPropertyOp47
 70
     1
102
RTVSPropertyOp48
 70
     1
102
RTVSPropertyOp49
 70
     1
102
RTVSPropertyOp50
 70
     1
102
RTVSPropertyOp51
 70
     0
102
RTVSPropertyOp52
 70
     0
102
RTVSPropertyOp53
 70
     1
102
RTVSPropertyOp54
 70
     1
102
RTVSPropertyOp55
 70
     1
102
RTVSPropertyOp56
 70
     1
102
RTVSPropertyOp57
 70
     1
102
RTVSPost2010Prop28
280
     0
102
RTVSPost2010PropOp28
 70
     1
102
RTVSPost2010Prop29
280
     1
102
RTVSPost2010PropOp29
 70
     1
102
RTVSPost2010Prop30
280
     1
102
RTVSPost2010PropOp30
 70
     1
102
RTVSPost2010Prop31
280
     0
102
RTVSPost2010PropOp31
 70
     1
102
RTVSPost2010Prop32
280
     0
102
RTVSPost2010PropOp32
 70
     1
102
RTVSPost2010Prop33
280
     0
102
RTVSPost2010PropOp33
 70
     1
102
RTVSPost2010Prop34
280
     0
102
RTVSPost2010PropOp34
 70
     1
102
RTVSPost2010Prop35
280
     0
102
RTVSPost2010PropOp35
 70
     1
102
RTVSPost2010Prop36
280
     0
102
RTVSPost2010PropOp36
 70
     1
102
RTVSPost2010Prop37
 90
       50
102
RTVSPost2010PropOp37
 70
     1
102
RTVSPost2010Prop38
140
0.0
102
RTVSPost2010PropOp38
 70
     1
102
RTVSPost2010Prop39
140
1.0
102
RTVSPost2010PropOp39
 70
     1
102
RTVSPost2010Prop40
 90
        0
102
RTVSPost2010PropOp40
 70
     1
102
RTVSPost2010Prop41ColorIndex
 90
       18
102
RTVSPost2010Prop41ColorRGB
 90
        0
102
RTVSPost2010PropOp41
 70
     1
102
RTVSPost2010Prop42
 90
       50
102
RTVSPost2010PropOp42
 70
     1
102
RTVSPost2010Prop43
 90
        3
102
RTVSPost2010PropOp43
 70
     1
102
RTVSPost2010Prop44ColorIndex
 90
        5
102
RTVSPost2010Prop44ColorRGB
 90
      255
102
RTVSPost2010PropOp44
 70
     1
102
RTVSPost2010Prop45
280
     0
102
RTVSPost2010PropOp45
 70
     1
102
RTVSPost2010Prop46
 90
       50
102
RTVSPost2010PropOp46
 70
     1
102
RTVSPost2010Prop47
 90
       50
102
RTVSPost2010PropOp47
 70
     1
102
RTVSPost2010Prop48
 90
       50
102
RTVSPost2010PropOp48
 70
     1
102
RTVSPost2010Prop49
280
     0
102
RTVSPost2010PropOp49
 70
     1
102
RTVSPost2010Prop50
 90
       50
102
RTVSPost2010PropOp50
 70
     1
102
RTVSPost2010Prop51ColorIndex
 90
      256
102
RTVSPost2010Prop51ColorRGB
 90
-16777216
102
RTVSPost2010PropOp51
 70
     0
102
RTVSPost2010Prop52
140
1.0
102
RTVSPost2010PropOp52
 70
     0
102
RTVSPost2010Prop53
 90
        2
102
RTVSPost2010PropOp53
 70
     1
102
RTVSPost2010Prop54
  1
strokes_ogs.tif
102
RTVSPost2010PropOp54
 70
     1
102
RTVSPost2010Prop55
280
     0
102
RTVSPost2010PropOp55
 70
     1
102
RTVSPost2010Prop56
140
1.0
102
RTVSPost2010PropOp56
 70
     1
102
RTVSPost2010Prop57
140
1.0
102
RTVSPost2010PropOp57
 70
     1
  0
XRECORD
  5
392
102
{ACAD_REACTORS
330
391
102
}
330
391
100
AcDbXrecord
280
     1
102
RTVSPropertyOp0
 70
     1
102
RTVSPropertyOp1
 70
     1
102
RTVSPropertyOp2
 70
     1
102
RTVSPropertyOp3
 70
     1
102
RTVSPropertyOp4
 70
     1
102
RTVSPropertyOp5
 70
     1
102
RTVSPropertyOp6
 70
     1
102
RTVSPropertyOp7
 70
     1
102
RTVSPropertyOp8
 70
     1
102
RTVSPropertyOp9
 70
     1
102
RTVSPropertyOp10
 70
     1
102
RTVSPropertyOp11
 70
     1
102
RTVSPropertyOp12
 70
     1
102
RTVSPropertyOp13
 70
     1
102
RTVSPropertyOp14
 70
     1
102
RTVSPropertyOp15
 70
     1
102
RTVSPropertyOp16
 70
     1
102
RTVSPropertyOp17
 70
     1
102
RTVSPropertyOp18
 70
     1
102
RTVSPropertyOp19
 70
     1
102
RTVSPropertyOp20
 70
     1
102
RTVSPropertyOp21
 70
     1
102
RTVSPropertyOp22
 70
     1
102
RTVSPropertyOp23
 70
     1
102
RTVSPropertyOp24
 70
     1
102
RTVSPropertyOp25
 70
     1
102
RTVSPropertyOp26
 70
     1
102
RTVSPropertyOp27
 70
     1
102
RTVSPropertyOp28
 70
     1
102
RTVSPropertyOp29
 70
     1
102
RTVSPropertyOp30
 70
     1
102
RTVSPropertyOp31
 70
     1
102
RTVSPropertyOp32
 70
     1
102
RTVSPropertyOp33
 70
     1
102
RTVSPropertyOp34
 70
     1
102
RTVSPropertyOp35
 70
     1
102
RTVSPropertyOp36
 70
     1
102
RTVSPropertyOp37
 70
     1
102
RTVSPropertyOp38
 70
     1
102
RTVSPropertyOp39
 70
     1
102
RTVSPropertyOp40
 70
     1
102
RTVSPropertyOp41
 70
     1
102
RTVSPropertyOp42
 70
     1
102
RTVSPropertyOp43
 70
     1
102
RTVSPropertyOp44
 70
     1
102
RTVSPropertyOp45
 70
     1
102
RTVSPropertyOp46
 70
     1
102
RTVSPropertyOp47
 70
     1
102
RTVSPropertyOp48
 70
     1
102
RTVSPropertyOp49
 70
     1
102
RTVSPropertyOp50
 70
     1
102
RTVSPropertyOp51
 70
     0
102
RTVSPropertyOp52
 70
     0
102
RTVSPropertyOp53
 70
     1
102
RTVSPropertyOp54
 70
     1
102
RTVSPropertyOp55
 70
     1
102
RTVSPropertyOp56
 70
     1
102
RTVSPropertyOp57
 70
     1
102
RTVSPost2010Prop28
280
     0
102
RTVSPost2010PropOp28
 70
     1
102
RTVSPost2010Prop29
280
     1
102
RTVSPost2010PropOp29
 70
     1
102
RTVSPost2010Prop30
280
     1
102
RTVSPost2010PropOp30
 70
     1
102
RTVSPost2010Prop31
280
     0
102
RTVSPost2010PropOp31
 70
     1
102
RTVSPost2010Prop32
280
     0
102
RTVSPost2010PropOp32
 70
     1
102
RTVSPost2010Prop33
280
     0
102
RTVSPost2010PropOp33
 70
     1
102
RTVSPost2010Prop34
280
     0
102
RTVSPost2010PropOp34
 70
     1
102
RTVSPost2010Prop35
280
     0
102
RTVSPost2010PropOp35
 70
     1
102
RTVSPost2010Prop36
280
     0
102
RTVSPost2010PropOp36
 70
     1
102
RTVSPost2010Prop37
 90
       50
102
RTVSPost2010PropOp37
 70
     1
102
RTVSPost2010Prop38
140
0.0
102
RTVSPost2010PropOp38
 70
     1
102
RTVSPost2010Prop39
140
1.0
102
RTVSPost2010PropOp39
 70
     1
102
RTVSPost2010Prop40
 90
        0
102
RTVSPost2010PropOp40
 70
     1
102
RTVSPost2010Prop41ColorIndex
 90
       18
102
RTVSPost2010Prop41ColorRGB
 90
        0
102
RTVSPost2010PropOp41
 70
     1
102
RTVSPost2010Prop42
 90
       50
102
RTVSPost2010PropOp42
 70
     1
102
RTVSPost2010Prop43
 90
        3
102
RTVSPost2010PropOp43
 70
     1
102
RTVSPost2010Prop44ColorIndex
 90
        5
102
RTVSPost2010Prop44ColorRGB
 90
      255
102
RTVSPost2010PropOp44
 70
     1
102
RTVSPost2010Prop45
280
     0
102
RTVSPost2010PropOp45
 70
     1
102
RTVSPost2010Prop46
 90
       50
102
RTVSPost2010PropOp46
 70
     1
102
RTVSPost2010Prop47
 90
       50
102
RTVSPost2010PropOp47
 70
     1
102
RTVSPost2010Prop48
 90
       50
102
RTVSPost2010PropOp48
 70
     1
102
RTVSPost2010Prop49
280
     0
102
RTVSPost2010PropOp49
 70
     1
102
RTVSPost2010Prop50
 90
       50
102
RTVSPost2010PropOp50
 70
     1
102
RTVSPost2010Prop51ColorIndex
 90
      256
102
RTVSPost2010Prop51ColorRGB
 90
-16777216
102
RTVSPost2010PropOp51
 70
     0
102
RTVSPost2010Prop52
140
1.0
102
RTVSPost2010PropOp52
 70
     0
102
RTVSPost2010Prop53
 90
        2
102
RTVSPost2010PropOp53
 70
     1
102
RTVSPost2010Prop54
  1
strokes_ogs.tif
102
RTVSPost2010PropOp54
 70
     1
102
RTVSPost2010Prop55
280
     0
102
RTVSPost2010PropOp55
 70
     1
102
RTVSPost2010Prop56
140
1.0
102
RTVSPost2010PropOp56
 70
     1
102
RTVSPost2010Prop57
140
1.0
102
RTVSPost2010PropOp57
 70
     1
  0
XRECORD
  5
394
102
{ACAD_REACTORS
330
393
102
}
330
393
100
AcDbXrecord
280
     1
102
RTVSPropertyOp0
 70
     1
102
RTVSPropertyOp1
 70
     1
102
RTVSPropertyOp2
 70
     1
102
RTVSPropertyOp3
 70
     1
102
RTVSPropertyOp4
 70
     1
102
RTVSPropertyOp5
 70
     1
102
RTVSPropertyOp6
 70
     1
102
RTVSPropertyOp7
 70
     1
102
RTVSPropertyOp8
 70
     1
102
RTVSPropertyOp9
 70
     1
102
RTVSPropertyOp10
 70
     1
102
RTVSPropertyOp11
 70
     1
102
RTVSPropertyOp12
 70
     1
102
RTVSPropertyOp13
 70
     1
102
RTVSPropertyOp14
 70
     1
102
RTVSPropertyOp15
 70
     1
102
RTVSPropertyOp16
 70
     1
102
RTVSPropertyOp17
 70
     1
102
RTVSPropertyOp18
 70
     1
102
RTVSPropertyOp19
 70
     1
102
RTVSPropertyOp20
 70
     1
102
RTVSPropertyOp21
 70
     1
102
RTVSPropertyOp22
 70
     1
102
RTVSPropertyOp23
 70
     1
102
RTVSPropertyOp24
 70
     1
102
RTVSPropertyOp25
 70
     1
102
RTVSPropertyOp26
 70
     1
102
RTVSPropertyOp27
 70
     1
102
RTVSPropertyOp28
 70
     1
102
RTVSPropertyOp29
 70
     1
102
RTVSPropertyOp30
 70
     1
102
RTVSPropertyOp31
 70
     1
102
RTVSPropertyOp32
 70
     1
102
RTVSPropertyOp33
 70
     1
102
RTVSPropertyOp34
 70
     1
102
RTVSPropertyOp35
 70
     1
102
RTVSPropertyOp36
 70
     1
102
RTVSPropertyOp37
 70
     1
102
RTVSPropertyOp38
 70
     1
102
RTVSPropertyOp39
 70
     1
102
RTVSPropertyOp40
 70
     1
102
RTVSPropertyOp41
 70
     1
102
RTVSPropertyOp42
 70
     1
102
RTVSPropertyOp43
 70
     1
102
RTVSPropertyOp44
 70
     1
102
RTVSPropertyOp45
 70
     1
102
RTVSPropertyOp46
 70
     1
102
RTVSPropertyOp47
 70
     1
102
RTVSPropertyOp48
 70
     1
102
RTVSPropertyOp49
 70
     1
102
RTVSPropertyOp50
 70
     1
102
RTVSPropertyOp51
 70
     0
102
RTVSPropertyOp52
 70
     0
102
RTVSPropertyOp53
 70
     1
102
RTVSPropertyOp54
 70
     1
102
RTVSPropertyOp55
 70
     1
102
RTVSPropertyOp56
 70
     1
102
RTVSPropertyOp57
 70
     1
102
RTVSPost2010Prop28
280
     0
102
RTVSPost2010PropOp28
 70
     1
102
RTVSPost2010Prop29
280
     1
102
RTVSPost2010PropOp29
 70
     1
102
RTVSPost2010Prop30
280
     1
102
RTVSPost2010PropOp30
 70
     1
102
RTVSPost2010Prop31
280
     0
102
RTVSPost2010PropOp31
 70
     1
102
RTVSPost2010Prop32
280
     0
102
RTVSPost2010PropOp32
 70
     1
102
RTVSPost2010Prop33
280
     0
102
RTVSPost2010PropOp33
 70
     1
102
RTVSPost2010Prop34
280
     0
102
RTVSPost2010PropOp34
 70
     1
102
RTVSPost2010Prop35
280
     0
102
RTVSPost2010PropOp35
 70
     1
102
RTVSPost2010Prop36
280
     0
102
RTVSPost2010PropOp36
 70
     1
102
RTVSPost2010Prop37
 90
       50
102
RTVSPost2010PropOp37
 70
     1
102
RTVSPost2010Prop38
140
0.0
102
RTVSPost2010PropOp38
 70
     1
102
RTVSPost2010Prop39
140
1.0
102
RTVSPost2010PropOp39
 70
     1
102
RTVSPost2010Prop40
 90
        0
102
RTVSPost2010PropOp40
 70
     1
102
RTVSPost2010Prop41ColorIndex
 90
       18
102
RTVSPost2010Prop41ColorRGB
 90
        0
102
RTVSPost2010PropOp41
 70
     1
102
RTVSPost2010Prop42
 90
       50
102
RTVSPost2010PropOp42
 70
     1
102
RTVSPost2010Prop43
 90
        3
102
RTVSPost2010PropOp43
 70
     1
102
RTVSPost2010Prop44ColorIndex
 90
        5
102
RTVSPost2010Prop44ColorRGB
 90
      255
102
RTVSPost2010PropOp44
 70
     1
102
RTVSPost2010Prop45
280
     0
102
RTVSPost2010PropOp45
 70
     1
102
RTVSPost2010Prop46
 90
       50
102
RTVSPost2010PropOp46
 70
     1
102
RTVSPost2010Prop47
 90
       50
102
RTVSPost2010PropOp47
 70
     1
102
RTVSPost2010Prop48
 90
       50
102
RTVSPost2010PropOp48
 70
     1
102
RTVSPost2010Prop49
280
     0
102
RTVSPost2010PropOp49
 70
     1
102
RTVSPost2010Prop50
 90
       50
102
RTVSPost2010PropOp50
 70
     1
102
RTVSPost2010Prop51ColorIndex
 90
      256
102
RTVSPost2010Prop51ColorRGB
 90
-16777216
102
RTVSPost2010PropOp51
 70
     0
102
RTVSPost2010Prop52
140
1.0
102
RTVSPost2010PropOp52
 70
     0
102
RTVSPost2010Prop53
 90
        2
102
RTVSPost2010PropOp53
 70
     1
102
RTVSPost2010Prop54
  1
strokes_ogs.tif
102
RTVSPost2010PropOp54
 70
     1
102
RTVSPost2010Prop55
280
     0
102
RTVSPost2010PropOp55
 70
     1
102
RTVSPost2010Prop56
140
1.0
102
RTVSPost2010PropOp56
 70
     1
102
RTVSPost2010Prop57
140
1.0
102
RTVSPost2010PropOp57
 70
     1
  0
XRECORD
  5
384
102
{ACAD_REACTORS
330
383
102
}
330
383
100
AcDbXrecord
280
     1
102
RTVSPropertyOp0
 70
     1
102
RTVSPropertyOp1
 70
     1
102
RTVSPropertyOp2
 70
     1
102
RTVSPropertyOp3
 70
     1
102
RTVSPropertyOp4
 70
     1
102
RTVSPropertyOp5
 70
     1
102
RTVSPropertyOp6
 70
     1
102
RTVSPropertyOp7
 70
     1
102
RTVSPropertyOp8
 70
     1
102
RTVSPropertyOp9
 70
     1
102
RTVSPropertyOp10
 70
     1
102
RTVSPropertyOp11
 70
     1
102
RTVSPropertyOp12
 70
     1
102
RTVSPropertyOp13
 70
     1
102
RTVSPropertyOp14
 70
     1
102
RTVSPropertyOp15
 70
     1
102
RTVSPropertyOp16
 70
     1
102
RTVSPropertyOp17
 70
     1
102
RTVSPropertyOp18
 70
     1
102
RTVSPropertyOp19
 70
     1
102
RTVSPropertyOp20
 70
     1
102
RTVSPropertyOp21
 70
     1
102
RTVSPropertyOp22
 70
     1
102
RTVSPropertyOp23
 70
     1
102
RTVSPropertyOp24
 70
     1
102
RTVSPropertyOp25
 70
     1
102
RTVSPropertyOp26
 70
     1
102
RTVSPropertyOp27
 70
     1
102
RTVSPropertyOp28
 70
     1
102
RTVSPropertyOp29
 70
     1
102
RTVSPropertyOp30
 70
     1
102
RTVSPropertyOp31
 70
     1
102
RTVSPropertyOp32
 70
     1
102
RTVSPropertyOp33
 70
     1
102
RTVSPropertyOp34
 70
     1
102
RTVSPropertyOp35
 70
     1
102
RTVSPropertyOp36
 70
     1
102
RTVSPropertyOp37
 70
     1
102
RTVSPropertyOp38
 70
     1
102
RTVSPropertyOp39
 70
     1
102
RTVSPropertyOp40
 70
     1
102
RTVSPropertyOp41
 70
     1
102
RTVSPropertyOp42
 70
     1
102
RTVSPropertyOp43
 70
     1
102
RTVSPropertyOp44
 70
     1
102
RTVSPropertyOp45
 70
     1
102
RTVSPropertyOp46
 70
     1
102
RTVSPropertyOp47
 70
     1
102
RTVSPropertyOp48
 70
     1
102
RTVSPropertyOp49
 70
     1
102
RTVSPropertyOp50
 70
     1
102
RTVSPropertyOp51
 70
     0
102
RTVSPropertyOp52
 70
     0
102
RTVSPropertyOp53
 70
     1
102
RTVSPropertyOp54
 70
     1
102
RTVSPropertyOp55
 70
     1
102
RTVSPropertyOp56
 70
     1
102
RTVSPropertyOp57
 70
     1
102
RTVSPost2010Prop28
280
     0
102
RTVSPost2010PropOp28
 70
     1
102
RTVSPost2010Prop29
280
     1
102
RTVSPost2010PropOp29
 70
     1
102
RTVSPost2010Prop30
280
     1
102
RTVSPost2010PropOp30
 70
     1
102
RTVSPost2010Prop31
280
     0
102
RTVSPost2010PropOp31
 70
     1
102
RTVSPost2010Prop32
280
     0
102
RTVSPost2010PropOp32
 70
     1
102
RTVSPost2010Prop33
280
     0
102
RTVSPost2010PropOp33
 70
     1
102
RTVSPost2010Prop34
280
     0
102
RTVSPost2010PropOp34
 70
     1
102
RTVSPost2010Prop35
280
     0
102
RTVSPost2010PropOp35
 70
     1
102
RTVSPost2010Prop36
280
     0
102
RTVSPost2010PropOp36
 70
     1
102
RTVSPost2010Prop37
 90
       50
102
RTVSPost2010PropOp37
 70
     1
102
RTVSPost2010Prop38
140
0.0
102
RTVSPost2010PropOp38
 70
     1
102
RTVSPost2010Prop39
140
1.0
102
RTVSPost2010PropOp39
 70
     1
102
RTVSPost2010Prop40
 90
        0
102
RTVSPost2010PropOp40
 70
     1
102
RTVSPost2010Prop41ColorIndex
 90
       18
102
RTVSPost2010Prop41ColorRGB
 90
        0
102
RTVSPost2010PropOp41
 70
     1
102
RTVSPost2010Prop42
 90
       50
102
RTVSPost2010PropOp42
 70
     1
102
RTVSPost2010Prop43
 90
        3
102
RTVSPost2010PropOp43
 70
     1
102
RTVSPost2010Prop44ColorIndex
 90
        5
102
RTVSPost2010Prop44ColorRGB
 90
      255
102
RTVSPost2010PropOp44
 70
     1
102
RTVSPost2010Prop45
280
     0
102
RTVSPost2010PropOp45
 70
     1
102
RTVSPost2010Prop46
 90
       50
102
RTVSPost2010PropOp46
 70
     1
102
RTVSPost2010Prop47
 90
       50
102
RTVSPost2010PropOp47
 70
     1
102
RTVSPost2010Prop48
 90
       50
102
RTVSPost2010PropOp48
 70
     1
102
RTVSPost2010Prop49
280
     0
102
RTVSPost2010PropOp49
 70
     1
102
RTVSPost2010Prop50
 90
       50
102
RTVSPost2010PropOp50
 70
     1
102
RTVSPost2010Prop51ColorIndex
 90
      256
102
RTVSPost2010Prop51ColorRGB
 90
-16777216
102
RTVSPost2010PropOp51
 70
     0
102
RTVSPost2010Prop52
140
1.0
102
RTVSPost2010PropOp52
 70
     0
102
RTVSPost2010Prop53
 90
        2
102
RTVSPost2010PropOp53
 70
     1
102
RTVSPost2010Prop54
  1
strokes_ogs.tif
102
RTVSPost2010PropOp54
 70
     1
102
RTVSPost2010Prop55
280
     0
102
RTVSPost2010PropOp55
 70
     1
102
RTVSPost2010Prop56
140
1.0
102
RTVSPost2010PropOp56
 70
     1
102
RTVSPost2010Prop57
140
1.0
102
RTVSPost2010PropOp57
 70
     1
  0
XRECORD
  5
376
102
{ACAD_REACTORS
330
375
102
}
330
375
100
AcDbXrecord
280
     1
102
RTVSPropertyOp0
 70
     1
102
RTVSPropertyOp1
 70
     1
102
RTVSPropertyOp2
 70
     1
102
RTVSPropertyOp3
 70
     1
102
RTVSPropertyOp4
 70
     1
102
RTVSPropertyOp5
 70
     1
102
RTVSPropertyOp6
 70
     1
102
RTVSPropertyOp7
 70
     1
102
RTVSPropertyOp8
 70
     1
102
RTVSPropertyOp9
 70
     1
102
RTVSPropertyOp10
 70
     1
102
RTVSPropertyOp11
 70
     1
102
RTVSPropertyOp12
 70
     1
102
RTVSPropertyOp13
 70
     1
102
RTVSPropertyOp14
 70
     1
102
RTVSPropertyOp15
 70
     1
102
RTVSPropertyOp16
 70
     1
102
RTVSPropertyOp17
 70
     1
102
RTVSPropertyOp18
 70
     1
102
RTVSPropertyOp19
 70
     1
102
RTVSPropertyOp20
 70
     1
102
RTVSPropertyOp21
 70
     1
102
RTVSPropertyOp22
 70
     1
102
RTVSPropertyOp23
 70
     1
102
RTVSPropertyOp24
 70
     1
102
RTVSPropertyOp25
 70
     1
102
RTVSPropertyOp26
 70
     1
102
RTVSPropertyOp27
 70
     1
102
RTVSPropertyOp28
 70
     1
102
RTVSPropertyOp29
 70
     1
102
RTVSPropertyOp30
 70
     1
102
RTVSPropertyOp31
 70
     1
102
RTVSPropertyOp32
 70
     1
102
RTVSPropertyOp33
 70
     1
102
RTVSPropertyOp34
 70
     1
102
RTVSPropertyOp35
 70
     1
102
RTVSPropertyOp36
 70
     1
102
RTVSPropertyOp37
 70
     1
102
RTVSPropertyOp38
 70
     1
102
RTVSPropertyOp39
 70
     1
102
RTVSPropertyOp40
 70
     1
102
RTVSPropertyOp41
 70
     1
102
RTVSPropertyOp42
 70
     1
102
RTVSPropertyOp43
 70
     1
102
RTVSPropertyOp44
 70
     1
102
RTVSPropertyOp45
 70
     1
102
RTVSPropertyOp46
 70
     1
102
RTVSPropertyOp47
 70
     1
102
RTVSPropertyOp48
 70
     1
102
RTVSPropertyOp49
 70
     1
102
RTVSPropertyOp50
 70
     1
102
RTVSPropertyOp51
 70
     0
102
RTVSPropertyOp52
 70
     0
102
RTVSPropertyOp53
 70
     1
102
RTVSPropertyOp54
 70
     1
102
RTVSPropertyOp55
 70
     1
102
RTVSPropertyOp56
 70
     1
102
RTVSPropertyOp57
 70
     1
102
RTVSPost2010Prop28
280
     0
102
RTVSPost2010PropOp28
 70
     1
102
RTVSPost2010Prop29
280
     1
102
RTVSPost2010PropOp29
 70
     1
102
RTVSPost2010Prop30
280
     1
102
RTVSPost2010PropOp30
 70
     1
102
RTVSPost2010Prop31
280
     0
102
RTVSPost2010PropOp31
 70
     1
102
RTVSPost2010Prop32
280
     0
102
RTVSPost2010PropOp32
 70
     1
102
RTVSPost2010Prop33
280
     0
102
RTVSPost2010PropOp33
 70
     1
102
RTVSPost2010Prop34
280
     0
102
RTVSPost2010PropOp34
 70
     1
102
RTVSPost2010Prop35
280
     0
102
RTVSPost2010PropOp35
 70
     1
102
RTVSPost2010Prop36
280
     0
102
RTVSPost2010PropOp36
 70
     1
102
RTVSPost2010Prop37
 90
       50
102
RTVSPost2010PropOp37
 70
     1
102
RTVSPost2010Prop38
140
0.0
102
RTVSPost2010PropOp38
 70
     1
102
RTVSPost2010Prop39
140
1.0
102
RTVSPost2010PropOp39
 70
     1
102
RTVSPost2010Prop40
 90
        0
102
RTVSPost2010PropOp40
 70
     1
102
RTVSPost2010Prop41ColorIndex
 90
       18
102
RTVSPost2010Prop41ColorRGB
 90
        0
102
RTVSPost2010PropOp41
 70
     1
102
RTVSPost2010Prop42
 90
       50
102
RTVSPost2010PropOp42
 70
     1
102
RTVSPost2010Prop43
 90
        3
102
RTVSPost2010PropOp43
 70
     1
102
RTVSPost2010Prop44ColorIndex
 90
        5
102
RTVSPost2010Prop44ColorRGB
 90
      255
102
RTVSPost2010PropOp44
 70
     1
102
RTVSPost2010Prop45
280
     0
102
RTVSPost2010PropOp45
 70
     1
102
RTVSPost2010Prop46
 90
       50
102
RTVSPost2010PropOp46
 70
     1
102
RTVSPost2010Prop47
 90
       50
102
RTVSPost2010PropOp47
 70
     1
102
RTVSPost2010Prop48
 90
       50
102
RTVSPost2010PropOp48
 70
     1
102
RTVSPost2010Prop49
280
     0
102
RTVSPost2010PropOp49
 70
     1
102
RTVSPost2010Prop50
 90
       50
102
RTVSPost2010PropOp50
 70
     1
102
RTVSPost2010Prop51ColorIndex
 90
      256
102
RTVSPost2010Prop51ColorRGB
 90
-16777216
102
RTVSPost2010PropOp51
 70
     0
102
RTVSPost2010Prop52
140
1.0
102
RTVSPost2010PropOp52
 70
     0
102
RTVSPost2010Prop53
 90
        2
102
RTVSPost2010PropOp53
 70
     1
102
RTVSPost2010Prop54
  1
strokes_ogs.tif
102
RTVSPost2010PropOp54
 70
     1
102
RTVSPost2010Prop55
280
     0
102
RTVSPost2010PropOp55
 70
     1
102
RTVSPost2010Prop56
140
1.0
102
RTVSPost2010PropOp56
 70
     1
102
RTVSPost2010Prop57
140
1.0
102
RTVSPost2010PropOp57
 70
     1
  0
XRECORD
  5
396
102
{ACAD_REACTORS
330
395
102
}
330
395
100
AcDbXrecord
280
     1
102
RTVSPropertyOp0
 70
     1
102
RTVSPropertyOp1
 70
     1
102
RTVSPropertyOp2
 70
     1
102
RTVSPropertyOp3
 70
     1
102
RTVSPropertyOp4
 70
     1
102
RTVSPropertyOp5
 70
     1
102
RTVSPropertyOp6
 70
     1
102
RTVSPropertyOp7
 70
     1
102
RTVSPropertyOp8
 70
     1
102
RTVSPropertyOp9
 70
     1
102
RTVSPropertyOp10
 70
     1
102
RTVSPropertyOp11
 70
     1
102
RTVSPropertyOp12
 70
     1
102
RTVSPropertyOp13
 70
     1
102
RTVSPropertyOp14
 70
     1
102
RTVSPropertyOp15
 70
     1
102
RTVSPropertyOp16
 70
     1
102
RTVSPropertyOp17
 70
     1
102
RTVSPropertyOp18
 70
     1
102
RTVSPropertyOp19
 70
     1
102
RTVSPropertyOp20
 70
     1
102
RTVSPropertyOp21
 70
     1
102
RTVSPropertyOp22
 70
     1
102
RTVSPropertyOp23
 70
     1
102
RTVSPropertyOp24
 70
     1
102
RTVSPropertyOp25
 70
     1
102
RTVSPropertyOp26
 70
     1
102
RTVSPropertyOp27
 70
     1
102
RTVSPropertyOp28
 70
     1
102
RTVSPropertyOp29
 70
     1
102
RTVSPropertyOp30
 70
     1
102
RTVSPropertyOp31
 70
     1
102
RTVSPropertyOp32
 70
     1
102
RTVSPropertyOp33
 70
     1
102
RTVSPropertyOp34
 70
     1
102
RTVSPropertyOp35
 70
     1
102
RTVSPropertyOp36
 70
     1
102
RTVSPropertyOp37
 70
     1
102
RTVSPropertyOp38
 70
     1
102
RTVSPropertyOp39
 70
     1
102
RTVSPropertyOp40
 70
     1
102
RTVSPropertyOp41
 70
     1
102
RTVSPropertyOp42
 70
     1
102
RTVSPropertyOp43
 70
     1
102
RTVSPropertyOp44
 70
     1
102
RTVSPropertyOp45
 70
     1
102
RTVSPropertyOp46
 70
     1
102
RTVSPropertyOp47
 70
     1
102
RTVSPropertyOp48
 70
     1
102
RTVSPropertyOp49
 70
     1
102
RTVSPropertyOp50
 70
     1
102
RTVSPropertyOp51
 70
     0
102
RTVSPropertyOp52
 70
     0
102
RTVSPropertyOp53
 70
     1
102
RTVSPropertyOp54
 70
     1
102
RTVSPropertyOp55
 70
     1
102
RTVSPropertyOp56
 70
     1
102
RTVSPropertyOp57
 70
     1
102
RTVSPost2010Prop28
280
     0
102
RTVSPost2010PropOp28
 70
     1
102
RTVSPost2010Prop29
280
     1
102
RTVSPost2010PropOp29
 70
     1
102
RTVSPost2010Prop30
280
     1
102
RTVSPost2010PropOp30
 70
     1
102
RTVSPost2010Prop31
280
     0
102
RTVSPost2010PropOp31
 70
     1
102
RTVSPost2010Prop32
280
     0
102
RTVSPost2010PropOp32
 70
     1
102
RTVSPost2010Prop33
280
     0
102
RTVSPost2010PropOp33
 70
     1
102
RTVSPost2010Prop34
280
     0
102
RTVSPost2010PropOp34
 70
     1
102
RTVSPost2010Prop35
280
     0
102
RTVSPost2010PropOp35
 70
     1
102
RTVSPost2010Prop36
280
     0
102
RTVSPost2010PropOp36
 70
     1
102
RTVSPost2010Prop37
 90
       50
102
RTVSPost2010PropOp37
 70
     1
102
RTVSPost2010Prop38
140
0.0
102
RTVSPost2010PropOp38
 70
     1
102
RTVSPost2010Prop39
140
1.0
102
RTVSPost2010PropOp39
 70
     1
102
RTVSPost2010Prop40
 90
        0
102
RTVSPost2010PropOp40
 70
     1
102
RTVSPost2010Prop41ColorIndex
 90
       18
102
RTVSPost2010Prop41ColorRGB
 90
        0
102
RTVSPost2010PropOp41
 70
     1
102
RTVSPost2010Prop42
 90
       50
102
RTVSPost2010PropOp42
 70
     1
102
RTVSPost2010Prop43
 90
        3
102
RTVSPost2010PropOp43
 70
     1
102
RTVSPost2010Prop44ColorIndex
 90
        5
102
RTVSPost2010Prop44ColorRGB
 90
      255
102
RTVSPost2010PropOp44
 70
     1
102
RTVSPost2010Prop45
280
     0
102
RTVSPost2010PropOp45
 70
     1
102
RTVSPost2010Prop46
 90
       50
102
RTVSPost2010PropOp46
 70
     1
102
RTVSPost2010Prop47
 90
       50
102
RTVSPost2010PropOp47
 70
     1
102
RTVSPost2010Prop48
 90
       50
102
RTVSPost2010PropOp48
 70
     1
102
RTVSPost2010Prop49
280
     0
102
RTVSPost2010PropOp49
 70
     1
102
RTVSPost2010Prop50
 90
       50
102
RTVSPost2010PropOp50
 70
     1
102
RTVSPost2010Prop51ColorIndex
 90
      256
102
RTVSPost2010Prop51ColorRGB
 90
-16777216
102
RTVSPost2010PropOp51
 70
     0
102
RTVSPost2010Prop52
140
1.0
102
RTVSPost2010PropOp52
 70
     0
102
RTVSPost2010Prop53
 90
        2
102
RTVSPost2010PropOp53
 70
     1
102
RTVSPost2010Prop54
  1
strokes_ogs.tif
102
RTVSPost2010PropOp54
 70
     1
102
RTVSPost2010Prop55
280
     0
102
RTVSPost2010PropOp55
 70
     1
102
RTVSPost2010Prop56
140
1.0
102
RTVSPost2010PropOp56
 70
     1
102
RTVSPost2010Prop57
140
1.0
102
RTVSPost2010PropOp57
 70
     1
  0
ENDSEC
  0
EOF
